<?xml version="1.0" standalone="no"?>
<!DOCTYPE svg PUBLIC "-//W3C//DTD SVG 1.1//EN" "http://www.w3.org/Graphics/SVG/1.1/DTD/svg11.dtd" >
<svg xmlns="http://www.w3.org/2000/svg">
<metadata></metadata>
<defs>
<font id="akzidenz-grotesk_stdmedium" horiz-adv-x="1150" >
<font-face units-per-em="2048" ascent="1536" descent="-512" />
<missing-glyph horiz-adv-x="589" />
<glyph unicode="&#xfb01;" horiz-adv-x="1153" d="M8 850v174h154v141q0 72 13 120t48 87t101.5 57.5t167.5 18.5q61 0 139 -10v-209q-18 6 -78 6q-50 0 -81.5 -12t-44 -36t-16 -43t-3.5 -50v-70h223v-174h-223v-850h-246v850h-154zM774 0v1024h244v-1024h-244zM774 1184v248h244v-248h-244z" />
<glyph unicode="&#xfb02;" horiz-adv-x="1153" d="M8 850v174h154v141q0 72 13 120t48 87t101.5 57.5t167.5 18.5q61 0 139 -10v-209q-18 6 -78 6q-50 0 -81.5 -12t-44 -36t-16 -43t-3.5 -50v-70h223v-174h-223v-850h-246v850h-154zM774 0v1446h250v-1446h-250z" />
<glyph horiz-adv-x="0" />
<glyph horiz-adv-x="682" />
<glyph unicode=" "  horiz-adv-x="589" />
<glyph unicode="&#x09;" horiz-adv-x="589" />
<glyph unicode="&#xa0;" horiz-adv-x="589" />
<glyph unicode="!" horiz-adv-x="512" d="M164 0v283h268v-283h-268zM164 893v553h268v-553l-78 -533h-114z" />
<glyph unicode="&#x22;" horiz-adv-x="679" d="M72 1522h196l-61 -613h-72zM410 1522h198l-63 -613h-70z" />
<glyph unicode="#" horiz-adv-x="1366" d="M86 438v205h276l27 193h-258v204h285l55 406h213l-57 -406h200l56 406h207l-56 -406h242v-204h-268l-29 -193h252v-205h-277l-63 -438h-207l64 438h-203l-62 -438h-209l62 438h-250zM569 643h205l27 193h-203z" />
<glyph unicode="$" horiz-adv-x="1280" d="M72 272l207 158q37 -54 111.5 -115t154.5 -69v391q-278 31 -375 170q-59 90 -59 199q0 148 88 254q121 143 346 167v222h188v-222q271 -25 443 -223l-195 -153q-32 41 -64.5 69t-67.5 44.5t-56.5 23.5t-59.5 16v-327q31 -4 72.5 -12.5t118.5 -37t129 -67.5 q147 -108 147 -311q0 -82 -25 -152t-69 -121t-103.5 -88.5t-127 -59t-142.5 -28.5v-233h-188v233q-174 32 -267 83.5t-206 188.5zM379 1047q0 -54 36 -87t130 -51v295q-23 -4 -46.5 -12.5t-53 -25.5t-48 -48t-18.5 -71zM733 242q27 5 56 16t63 32t56 58.5t22 85.5 q0 134 -197 174v-366z" />
<glyph unicode="%" horiz-adv-x="1792" d="M51 928q0 127 27.5 220t76 145.5t107 77t129.5 24.5t129 -25.5t104 -79t71.5 -144.5t25.5 -212q0 -75 -9.5 -140.5t-33.5 -128t-61.5 -106.5t-97 -71t-136.5 -27q-50 0 -94 12t-89 44t-77 82.5t-52 135t-20 193.5zM238 913q0 -153 36.5 -222.5t112.5 -69.5q75 0 111.5 70 t36.5 231q0 72 -6.5 126t-22.5 99t-46 68.5t-73 23.5q-33 0 -59 -14t-41.5 -41t-26 -56t-15 -70t-6 -72.5t-1.5 -72.5zM487 -12l646 1401l139 -66l-643 -1399zM1073 453q0 127 27.5 220t76 145.5t107 77t129.5 24.5t129 -25.5t104 -79t71.5 -144.5t25.5 -212 q0 -75 -9.5 -140.5t-33.5 -128t-61.5 -106.5t-97 -71t-136.5 -27q-50 0 -94 12t-89 44t-77 82.5t-52 135t-20 193.5zM1260 438q0 -153 36.5 -223t112.5 -70q74 0 110.5 70t36.5 231q0 72 -6.5 126t-22 99.5t-45.5 69t-73 23.5q-33 0 -59 -14t-41.5 -41t-26 -56t-15 -70 t-6 -72.5t-1.5 -72.5z" />
<glyph unicode="&#x26;" horiz-adv-x="1323" d="M88 377q0 37 6.5 71.5t15 61.5t27 56.5t32 49t41 45.5t43 39.5t49.5 38t48 34t51 34.5q-61 95 -61 213q0 64 20.5 123t60 107t105 77t148.5 29q145 0 239.5 -89.5t94.5 -217.5q0 -31 -7.5 -64t-26.5 -71.5t-48.5 -73t-79 -67t-111.5 -54.5q83 -137 189 -275 q16 23 28.5 48t19.5 42t12.5 42.5t7 35t4.5 34t3 26.5h236q-6 -57 -12 -78q-8 -34 -22.5 -78.5t-51 -120t-80.5 -131.5q35 -36 64 -49.5t79 -13.5q27 0 45 4v-205q-65 -6 -100 -6q-71 0 -123.5 12.5t-78.5 27t-62 42.5q-31 -21 -56 -35t-69.5 -33t-100.5 -29t-120 -10 q-126 0 -229 45.5t-166.5 139.5t-63.5 223zM336 393q0 -80 60 -145.5t165 -65.5q107 0 199 78l-248 363q-176 -90 -176 -230zM571 1059q0 -67 62 -158q160 46 160 154q0 48 -32.5 78t-80.5 30q-46 0 -77.5 -29.5t-31.5 -74.5z" />
<glyph unicode="'" horiz-adv-x="339" d="M72 1522h196l-61 -613h-72z" />
<glyph unicode="(" horiz-adv-x="667" d="M72 647q0 189 56.5 369t160.5 325q127 172 295 297l94 -104q-101 -103 -156 -178q-96 -136 -147 -312.5t-51 -373.5q0 -275 95.5 -511t262.5 -374l-90 -121q-157 114 -283 273q-237 304 -237 710z" />
<glyph unicode=")" horiz-adv-x="671" d="M-2 -231q110 112 156 178q97 137 148.5 313.5t51.5 374.5q0 275 -94.5 509.5t-261.5 373.5l90 120q169 -128 281 -272q237 -311 237 -711q0 -186 -56.5 -365.5t-162.5 -328.5q-58 -83 -126.5 -151.5t-168.5 -145.5z" />
<glyph unicode="*" horiz-adv-x="774" d="M41 1126l51 170l201 -57v211h178v-213l205 70l57 -166l-201 -70l123 -162l-139 -108l-131 170l-119 -170l-143 104l115 164z" />
<glyph unicode="+" horiz-adv-x="1482" d="M190 532v220h418v436h266v-436h418v-220h-418v-442h-266v442h-418z" />
<glyph unicode="," horiz-adv-x="425" d="M76 0v281h272v-316q0 -110 -67.5 -168t-188.5 -82v119q64 7 87.5 51t23.5 115h-127z" />
<glyph unicode="-" horiz-adv-x="761" d="M84 506v231h592v-231h-592z" />
<glyph unicode="." horiz-adv-x="425" d="M76 0v281h270v-281h-270z" />
<glyph unicode="/" horiz-adv-x="980" d="M27 0l686 1446h243l-686 -1446h-243z" />
<glyph unicode="0" d="M74 698q0 185 38 323t108 221t162 123t206 40q81 0 151.5 -22.5t134.5 -75.5t109.5 -133t72.5 -202t27 -276q0 -164 -30 -291.5t-78.5 -205.5t-116.5 -128.5t-136.5 -69.5t-146.5 -19t-144 17.5t-113.5 46t-86 72t-63.5 87.5t-43.5 101.5t-28 104.5t-15 105.5t-6.5 96.5 t-1 85zM338 684q0 -32 0.5 -51l1.5 -57t4.5 -63t9 -62t15 -62.5t22 -56t30.5 -50.5t40.5 -38t53 -26.5t65.5 -8.5q58 0 100.5 23.5t68.5 63.5t41.5 103t21 132t5.5 161q0 53 -1 90.5t-6 92t-14 93t-26 81t-41 68.5t-61 43.5t-84 17.5q-50 0 -90 -18t-66 -53t-44.5 -78.5 t-28 -102t-13.5 -116t-4 -126.5z" />
<glyph unicode="1" d="M154 961v157h26q81 0 134.5 10.5t105.5 47.5q51 37 76.5 85t42.5 121h204v-1382h-251v850q0 65 -26.5 88t-74.5 23h-237z" />
<glyph unicode="2" d="M117 0v201q282 202 483 424q150 168 150 338q0 90 -47.5 148t-135.5 58q-39 0 -70 -11.5t-51 -28t-34.5 -43.5t-21.5 -51t-11 -57t-5 -54t-1 -50v-26l-256 24v11q0 215 98 348q20 28 49.5 54.5t75 55.5t111 46.5t139.5 17.5q189 0 313 -113q65 -58 97 -142.5t32 -178.5 q0 -120 -53 -230q-20 -41 -49.5 -83.5t-52.5 -71t-69.5 -72.5t-65 -61t-76 -65t-68.5 -58q-107 -90 -147 -117h606v-213h-940z" />
<glyph unicode="3" d="M96 453h273q-4 -12 -4 -47q0 -14 2.5 -32.5t15.5 -50t34.5 -56.5t64.5 -43.5t100 -18.5q107 0 162 65.5t55 153.5q0 71 -37 123q-53 78 -191 78h-82v215h89q56 0 95.5 12t65.5 51q29 41 29 98q0 77 -49 127t-127 50q-17 0 -35 -2.5t-49 -16t-54 -36t-41 -69t-20 -108.5 l-270 58q3 29 13 63.5t30.5 82.5t57 91t86 81t125 60.5t165.5 22.5q29 0 62.5 -4t77.5 -14.5t84.5 -27.5t80.5 -46t69.5 -66t47.5 -91t18 -118q0 -24 -2.5 -47t-15.5 -64t-35.5 -73.5t-68 -64.5t-107.5 -48q49 -10 93 -33t83.5 -61.5t62.5 -100t23 -138.5 q0 -103 -40.5 -185.5t-109.5 -134t-157.5 -79t-187.5 -27.5q-27 0 -58.5 3t-88.5 13t-114 38t-98 70q-123 123 -123 347z" />
<glyph unicode="4" d="M35 317v181l606 884h252v-854h178v-211h-178v-317h-252v317h-606zM299 528h342l14 549z" />
<glyph unicode="5" d="M76 387l284 19q3 -91 56.5 -147t142.5 -56q62 0 108 26t70.5 68.5t35.5 88.5t11 95q0 41 -11 82.5t-35 83.5t-71.5 68t-111.5 26q-20 0 -43 -4t-56.5 -15.5t-62.5 -40t-45 -69.5l-229 15l96 759h768l-20 -231h-537l-47 -305q31 39 90.5 64t102 31.5t73.5 6.5 q185 0 301 -129q117 -128 117 -329q0 -212 -123 -349q-143 -163 -393 -163q-194 0 -318 94q-140 110 -153 311z" />
<glyph unicode="6" d="M98 651q0 35 2 74t9.5 116.5t29 159t54.5 146.5q35 69 84 120t93.5 76.5t96.5 40.5t82 18t61 3q177 0 297 -102q101 -87 127 -244l-262 -35q0 72 -47.5 114t-114.5 42q-33 0 -64.5 -9.5t-69 -44t-60.5 -90.5q-21 -51 -34 -134.5t-15 -149.5q42 62 117.5 100.5t172.5 38.5 q76 0 145.5 -27.5t125.5 -79.5t89.5 -135.5t33.5 -187.5q0 -129 -53 -236.5t-161 -175t-251 -67.5q-237 0 -362.5 174t-125.5 495zM389 434q0 -112 55 -167.5t146 -55.5q19 0 37 2t50.5 14.5t56 34.5t41.5 67t18 107q0 99 -53 161t-144 62q-97 0 -152 -64t-55 -161z" />
<glyph unicode="7" d="M131 1145v241h918v-225q-72 -87 -138 -188q-86 -133 -142 -259t-103 -284q-65 -223 -82 -430h-338q14 106 40 211.5t55 190t70 174t74 151.5t78.5 135t72.5 112.5t67.5 96.5t52.5 74h-625z" />
<glyph unicode="8" d="M59 397q0 120 63 202.5t165 125.5q-69 30 -123.5 106.5t-54.5 192.5q0 171 132.5 276t344.5 105q213 0 341 -107t128 -284q0 -54 -13.5 -99.5t-32 -74.5t-46 -54t-46.5 -37t-43 -24q44 -24 78 -51t66.5 -66t50.5 -92t18 -117q0 -183 -142.5 -300t-373.5 -117 q-59 0 -121.5 10.5t-134.5 39.5t-127 73.5t-92 120t-37 171.5zM348 406q0 -93 64.5 -144t171.5 -51q99 0 164 50.5t65 146.5q0 99 -66.5 149.5t-164.5 50.5q-106 0 -170 -54t-64 -148zM371 993q0 -93 59.5 -136.5t151.5 -43.5q110 0 157 53t47 127q0 82 -51.5 134.5 t-154.5 52.5q-31 0 -59 -5t-56 -18t-48.5 -33.5t-33 -54t-12.5 -76.5z" />
<glyph unicode="9" d="M102 332l281 39q24 -162 168 -162q64 0 111 41t70.5 106t33.5 126.5t10 121.5v10q-43 -61 -118 -90.5t-158 -29.5q-187 0 -292.5 118t-105.5 316q0 96 30.5 181.5t88 152t148 105t202.5 38.5q128 0 224 -51t152.5 -141.5t84 -205t27.5 -251.5q0 -114 -15 -218 t-53.5 -207.5t-97.5 -179t-155.5 -122.5t-219.5 -47q-158 0 -274.5 90.5t-141.5 259.5zM369 952q0 -101 48.5 -169t145.5 -68q95 0 144 63t49 176q0 105 -55.5 166.5t-139.5 61.5q-93 0 -142.5 -69.5t-49.5 -160.5z" />
<glyph unicode=":" horiz-adv-x="512" d="M160 0v281h270v-281h-270zM160 760v282h270v-282h-270z" />
<glyph unicode=";" horiz-adv-x="512" d="M160 0v281h272v-299q0 -122 -62.5 -179.5t-195.5 -89.5v123q113 13 113 144v20h-127zM160 760v282h272v-282h-272z" />
<glyph unicode="&#x3c;" horiz-adv-x="1482" d="M231 526v252l953 467v-254l-709 -332l709 -335v-267z" />
<glyph unicode="=" horiz-adv-x="1482" d="M203 303v219h1077v-219h-1077zM203 719v219h1077v-219h-1077z" />
<glyph unicode="&#x3e;" horiz-adv-x="1482" d="M291 977v266l954 -469v-252l-952 -467v254l708 332z" />
<glyph unicode="?" d="M109 997q11 126 38 191q56 143 179.5 212.5t285.5 69.5q96 0 183 -28.5t154 -81.5t107 -135.5t40 -182.5q0 -118 -56 -202t-174 -166q-87 -60 -111 -102.5t-24 -141.5v-57h-239v51q0 223 57 303q22 32 59 61.5t70.5 51.5t65 49t50.5 65t19 88q0 84 -65 139.5t-150 55.5 q-114 0 -178 -76.5t-64 -191.5zM477 0v281h273v-281h-273z" />
<glyph unicode="@" horiz-adv-x="1835" d="M141 481q0 195 72 374t196 312t300 212t374 79q273 0 442 -161t169 -435q0 -169 -62.5 -334.5t-175 -276t-242.5 -110.5q-76 0 -122.5 40.5t-55.5 117.5q-126 -158 -276 -158q-134 0 -205.5 99t-71.5 239q0 74 18.5 154.5t56.5 157.5t89 138t123.5 98.5t153.5 37.5 q150 0 225 -147l25 104h161l-67 -315q-58 -267 -58 -345q0 -30 12 -52.5t40 -22.5q45 0 106 65q84 89 132 233.5t48 272.5q0 219 -130.5 341t-348.5 122q-131 0 -252.5 -45.5t-217 -126t-167.5 -185.5t-110.5 -229t-38.5 -252q0 -188 85.5 -325.5t230.5 -206t331 -68.5 t361.5 80t312.5 219l82 -104q-156 -158 -349.5 -245t-406.5 -87q-178 0 -330 61q-227 89 -343 260.5t-116 413.5zM670 489q0 -45 11.5 -85t45.5 -72.5t88 -32.5q64 0 118.5 43t87 108.5t51 135t18.5 129.5q0 77 -40 135.5t-114 58.5q-64 0 -117.5 -44t-84.5 -110.5 t-47.5 -136t-16.5 -129.5z" />
<glyph unicode="A" horiz-adv-x="1323" d="M12 0l490 1446h307l494 -1446h-289l-84 283h-543l-84 -283h-291zM459 520h399l-199 666z" />
<glyph unicode="B" horiz-adv-x="1409" d="M164 0v1446h647q110 0 195.5 -29t137.5 -78.5t78.5 -112t26.5 -134.5q0 -47 -13.5 -94t-40.5 -90.5t-75 -74.5t-110 -40q42 -8 83 -25t82.5 -48.5t72 -73.5t50 -103t19.5 -133q0 -62 -14.5 -118.5t-50 -110.5t-90 -93.5t-140 -63.5t-193.5 -24h-665zM432 233h356 q129 0 190.5 56.5t61.5 144.5q0 49 -14.5 87.5t-40.5 62t-55.5 40t-67 24.5t-67 11t-62.5 3h-301v-429zM432 864h273q49 0 93 9t84.5 28.5t64.5 57t24 88.5q0 52 -24 89t-65 55.5t-82 26t-87 7.5h-281v-361z" />
<glyph unicode="C" horiz-adv-x="1409" d="M76 737q0 101 22.5 201.5t74.5 200t129 175t196 122.5t264 47q108 0 198.5 -27t152.5 -70t111 -103.5t77.5 -120t48.5 -126.5l-269 -69q-12 117 -100 192.5t-209 75.5q-181 0 -292 -132.5t-111 -369.5q0 -53 7.5 -107t24.5 -113.5t48 -110.5t73.5 -93t106.5 -66t141 -24 q131 0 223 85t127 206l256 -107q-12 -32 -27.5 -63.5t-44 -77t-62.5 -84.5t-84.5 -80t-108 -69.5t-134.5 -47t-163 -18.5q-105 0 -202 28t-184 89t-151 150t-101.5 219.5t-37.5 287.5z" />
<glyph unicode="D" horiz-adv-x="1449" d="M145 0v1446h564q105 0 200 -26t180 -84t147 -142t98 -208t36 -275q0 -344 -178 -527.5t-500 -183.5h-547zM416 244h168q72 0 126.5 4.5t109 17t93 34t72.5 56.5t54.5 84t32 117t11.5 154q0 491 -444 491h-223v-958z" />
<glyph unicode="E" horiz-adv-x="1280" d="M160 0v1446h1028v-242h-762v-340h698v-233h-698v-387h813v-244h-1079z" />
<glyph unicode="F" d="M166 0v1446h956v-242h-688v-360h604v-232h-604v-612h-268z" />
<glyph unicode="G" horiz-adv-x="1536" d="M94 709q0 105 25.5 211t81.5 208t135.5 180.5t198.5 126.5t260 48q220 0 379.5 -121t228.5 -305l-258 -103q-8 24 -14 38.5t-22.5 48t-33 56t-45.5 51.5t-61.5 47t-78 31t-97.5 13q-184 0 -294 -141.5t-110 -380.5q0 -21 1.5 -47.5t10.5 -77.5t24.5 -97t46.5 -98.5 t72.5 -90t107.5 -62.5t147 -25q145 0 240 85t116 249h-360v238h608v-791h-234v123q-89 -83 -183 -121.5t-214 -38.5q-105 0 -203.5 30t-184.5 91.5t-150.5 148.5t-102 210t-37.5 266z" />
<glyph unicode="H" horiz-adv-x="1492" d="M164 0v1446h272v-545h621v545h272v-1446h-272v657h-621v-657h-272z" />
<glyph unicode="I" horiz-adv-x="598" d="M164 0v1446h266v-1446h-266z" />
<glyph unicode="J" horiz-adv-x="811" d="M53 -12v266q97 -21 144 -21q43 0 77.5 8.5t57 21t38.5 34t24.5 40.5t13 47.5t5.5 48t1 48.5v965h266v-1098q0 -28 -3.5 -56t-15 -66.5t-31 -72.5t-54.5 -69t-81.5 -59.5t-117 -40t-156.5 -15.5q-84 0 -168 19z" />
<glyph unicode="K" horiz-adv-x="1366" d="M164 0v1446h268v-664l580 664h317l-473 -545l506 -901h-309l-385 680l-236 -270v-410h-268z" />
<glyph unicode="L" horiz-adv-x="1067" d="M168 0v1446h272v-1200h574v-246h-846z" />
<glyph unicode="M" horiz-adv-x="1662" d="M156 0v1446h393l282 -1073l279 1073h391v-1446h-264l27 1188l-314 -1188h-243l-314 1188q27 -1141 27 -1188h-264z" />
<glyph unicode="N" horiz-adv-x="1449" d="M168 0v1446h244l641 -1020q-31 987 -33 1020h266v-1446h-237l-633 1014q16 -987 16 -1014h-264z" />
<glyph unicode="O" horiz-adv-x="1579" d="M98 721q0 158 50.5 298t140 242.5t220.5 162t284 59.5q129 0 240.5 -40.5t193.5 -111.5t140.5 -166t88 -205.5t29.5 -228.5q0 -73 -11 -146t-36.5 -149.5t-63.5 -144.5t-95 -128.5t-127 -104.5t-164 -69.5t-202 -25.5q-156 0 -287 61.5t-217.5 165.5t-135 241.5 t-48.5 289.5zM377 731q0 -71 13.5 -140.5t45 -138t78.5 -120.5t119.5 -84.5t161.5 -32.5q82 0 156 31.5t133 91.5t93.5 156t34.5 215q0 79 -16 154t-50 142.5t-82.5 118.5t-119 81t-153.5 30q-183 0 -298.5 -135.5t-115.5 -368.5z" />
<glyph unicode="P" horiz-adv-x="1280" d="M168 0v1446h561q228 0 371 -130.5t143 -350.5q0 -101 -30 -185t-92 -149.5t-165.5 -102t-240.5 -36.5h-277v-492h-270zM438 713h238q289 0 289 260q0 48 -11.5 86.5t-28.5 63.5t-45 42.5t-53.5 27t-61.5 14.5t-60.5 6t-59.5 1h-207v-501z" />
<glyph unicode="Q" horiz-adv-x="1579" d="M74 723q0 219 84 391.5t241.5 270.5t362.5 98q145 0 271.5 -52t219.5 -146t147 -233.5t54 -306.5q0 -113 -27 -232t-77 -206q14 -37 84.5 -72.5t134.5 -35.5l28 4l-75 -260q-144 35 -310 178q-59 -51 -130.5 -86t-137.5 -49t-108.5 -18.5t-79.5 -4.5q-203 0 -358.5 95.5 t-239.5 268t-84 396.5zM362 715q0 -73 17 -143.5t52 -134t84 -111.5t116.5 -76.5t144.5 -28.5q170 0 278.5 141.5t108.5 362.5q0 214 -114.5 357t-292.5 143q-169 0 -281.5 -144t-112.5 -366z" />
<glyph unicode="R" horiz-adv-x="1323" d="M166 0v1446h592q213 0 345 -127.5t132 -331.5q0 -57 -13 -111t-43 -110t-88.5 -102.5t-140.5 -73.5l322 -590h-309l-285 537h-244v-537h-268zM434 762h209q155 0 236.5 52.5t81.5 174.5q0 223 -281 223h-246v-450z" />
<glyph unicode="S" horiz-adv-x="1366" d="M47 272l227 158q145 -217 449 -217q123 0 200.5 49.5t77.5 140.5q0 29 -7 52t-25.5 40.5t-37.5 30t-55.5 24.5t-67.5 20t-85 20l-184 41q-65 15 -114.5 30.5t-109.5 47t-98.5 72t-65 105.5t-26.5 146q0 198 152 324.5t419 126.5q367 0 584 -293l-223 -166 q-131 215 -377 215q-23 0 -52 -3t-69 -14.5t-72 -29.5t-54.5 -51.5t-22.5 -77.5q0 -28 8 -49.5t27 -38t38 -28t55 -22.5t62 -17.5t74 -16.5l151 -33q78 -17 137 -35.5t125 -52.5t108.5 -77.5t70.5 -111t28 -151.5q0 -103 -39.5 -185.5t-102 -134t-145.5 -86t-164 -48 t-163 -13.5q-198 0 -370 76t-263 233z" />
<glyph unicode="T" d="M45 1202v244h1063v-244h-399v-1202h-271v1202h-393z" />
<glyph unicode="U" horiz-adv-x="1492" d="M164 586v860h272v-889q0 -114 15 -160q54 -172 297 -172q16 0 30.5 1t47 5t60.5 15t59 27.5t56 46.5t39 69q19 56 19 182v875h270v-895q0 -104 -4 -155t-20 -101q-15 -46 -43 -90.5t-76 -89t-109.5 -77.5t-149.5 -54t-190 -21q-90 0 -173.5 18.5t-159.5 56t-133.5 102.5 t-84.5 151q-11 36 -16 81t-5.5 80t-0.5 134z" />
<glyph unicode="V" horiz-adv-x="1236" d="M16 1446h285l324 -1141l315 1141h279l-412 -1446h-365z" />
<glyph unicode="W" horiz-adv-x="1705" d="M25 1446h276l197 -1102l225 1102h252l229 -1102l203 1102h279l-318 -1446h-315l-203 1006l-209 -1006h-315z" />
<glyph unicode="X" horiz-adv-x="1323" d="M18 0l486 784l-416 662h311l263 -414l251 414h314l-408 -662l490 -784h-310l-337 535l-330 -535h-314z" />
<glyph unicode="Y" horiz-adv-x="1280" d="M20 1446h308l313 -598l315 598h304l-488 -875v-571h-268v571z" />
<glyph unicode="Z" horiz-adv-x="1236" d="M49 0v221l791 983h-723v242h1061v-229l-760 -973h760v-244h-1129z" />
<glyph unicode="[" horiz-adv-x="583" d="M121 -295v1890h420v-149h-199v-1593h199v-148h-420z" />
<glyph unicode="\" horiz-adv-x="980" d="M27 1446h243l686 -1446h-243z" />
<glyph unicode="]" horiz-adv-x="583" d="M41 -145h199v1593h-199v147h420v-1890h-420v150z" />
<glyph unicode="^" horiz-adv-x="1482" d="M188 582l428 864h258l422 -864h-268l-278 630l-283 -630h-279z" />
<glyph unicode="_" horiz-adv-x="1024" d="M-20 -266h1064v-189h-1064v189z" />
<glyph unicode="`" horiz-adv-x="555" d="M72 1446h305l106 -272h-182z" />
<glyph unicode="a" horiz-adv-x="1110" d="M53 289q0 280 365 346q211 40 315 76q0 33 -6.5 57.5t-23.5 47.5t-54 35.5t-92 12.5q-53 0 -92.5 -11t-61 -27t-34 -38.5t-16 -40t-3.5 -36.5l-250 14q1 23 3 40t12.5 54.5t27 65t50.5 61.5t79.5 56t117 37.5t159.5 15.5q219 0 324.5 -75.5t105.5 -215.5v-598 q0 -60 7.5 -89t37.5 -77h-291l-6 80q-135 -105 -301 -105q-170 0 -271.5 90.5t-101.5 223.5zM313 311q0 -56 40.5 -90.5t127.5 -34.5q96 0 174 49t78 138v137q-83 -40 -194 -57q-51 -7 -84.5 -15t-69.5 -23.5t-54 -41t-18 -62.5z" />
<glyph unicode="b" horiz-adv-x="1193" d="M131 0v1446h246v-508q47 47 112.5 75.5t106 35t74.5 6.5q89 0 170.5 -38.5t143.5 -106.5t99 -170t37 -222q0 -131 -42 -238.5t-109.5 -173.5t-149 -101.5t-164.5 -35.5q-161 0 -280 137v-106h-244zM373 537q0 -161 68 -247.5t182 -86.5q105 0 175 88t70 246q0 72 -26 137 t-86.5 111t-143.5 46q-108 0 -173.5 -83.5t-65.5 -210.5z" />
<glyph unicode="c" horiz-adv-x="1058" d="M49 512q0 102 34 197.5t97.5 173.5t164 125t222.5 47q76 0 144 -21.5t115 -53t86 -73t61 -76t35 -67.5l-220 -102q-25 75 -83 124.5t-150 49.5q-119 0 -185.5 -91.5t-66.5 -226.5q0 -139 68.5 -229t189.5 -90q175 0 248 200l209 -110q-53 -150 -179.5 -235t-283.5 -85 q-147 0 -263.5 72t-179.5 195.5t-63 275.5z" />
<glyph unicode="d" horiz-adv-x="1193" d="M74 492q0 133 38.5 242t103.5 178t148 106t175 37q72 0 149.5 -28.5t124.5 -86.5v506h244v-1446h-244v98q-103 -129 -285 -129q-67 0 -130 18t-122.5 59t-104 100.5t-71 148.5t-26.5 197zM330 518q0 -60 13 -115.5t40.5 -103.5t76 -77t113.5 -29q103 0 170.5 81t67.5 220 q0 50 -6 94.5t-22.5 89.5t-42 77t-68 52t-97.5 20q-112 0 -178.5 -88t-66.5 -221z" />
<glyph unicode="e" d="M70 518q0 133 42.5 238t115 169t163.5 97t193 33q113 0 202 -35t144.5 -92.5t91.5 -136t50.5 -159t14.5 -169.5h-757q2 -20 8.5 -46.5t26.5 -64.5t49.5 -68.5t83 -52.5t120.5 -22q61 0 111.5 16t82 42t48 45t27.5 38l209 -121q-192 -260 -500 -260q-233 0 -379.5 149 t-146.5 400zM338 643h479q-2 20 -6.5 42.5t-20.5 55t-39 57t-65.5 42.5t-97.5 18q-57 0 -103 -19t-71 -44t-43 -59.5t-23.5 -53.5t-9.5 -39z" />
<glyph unicode="f" horiz-adv-x="641" d="M8 850v174h154v141q0 72 13 120t48 87t101.5 57.5t167.5 18.5q61 0 139 -10v-209q-18 6 -78 6q-50 0 -81.5 -12t-44 -36t-16 -43t-3.5 -50v-70h223v-174h-223v-850h-246v850h-154z" />
<glyph unicode="g" horiz-adv-x="1193" d="M70 547q0 129 41 229.5t108.5 159.5t147.5 89t165 30q96 0 170.5 -37.5t118.5 -102.5v109h244v-973q0 -109 -35.5 -186.5t-103 -122t-154.5 -64.5t-201 -20q-109 0 -192 21t-129.5 50.5t-79.5 77t-45 83.5t-23 87h271q8 -37 33 -64t57.5 -39.5t61 -18t53.5 -5.5 q117 0 180 51.5t63 176.5v90q-123 -109 -309 -109q-67 0 -129 17t-119.5 54.5t-100 93t-68 138.5t-25.5 185zM322 553q0 -123 66 -196.5t187 -73.5q119 0 185.5 71t66.5 191q0 127 -66 209t-188 82q-49 0 -92.5 -16.5t-79.5 -49.5t-57.5 -89t-21.5 -128z" />
<glyph unicode="h" horiz-adv-x="1193" d="M129 0v1446h246v-526q54 56 136.5 95.5t186.5 39.5q170 0 268.5 -94.5t98.5 -268.5v-692h-242v600q0 110 -50.5 165.5t-141.5 55.5q-104 0 -180 -71t-76 -183v-567h-246z" />
<glyph unicode="i" horiz-adv-x="512" d="M133 0v1024h244v-1024h-244zM133 1184v248h244v-248h-244z" />
<glyph unicode="j" horiz-adv-x="512" d="M2 -106q2 0 14 1t24 3t28 7t28 13q26 16 33.5 39.5t7.5 67.5v999h242v-1118q0 -28 -2.5 -50t-20.5 -60.5t-49 -64t-95 -45.5t-153 -20q-21 0 -57 4v224zM137 1186v250h242v-250h-242z" />
<glyph unicode="k" horiz-adv-x="1110" d="M131 0v1446h244v-813l399 391h313l-391 -391l430 -633h-299l-309 459l-143 -142v-317h-244z" />
<glyph unicode="l" horiz-adv-x="512" d="M133 0v1446h250v-1446h-250z" />
<glyph unicode="m" horiz-adv-x="1792" d="M129 0v1024h248v-115q40 53 127 99.5t194 46.5q90 0 166.5 -40.5t118.5 -115.5q123 156 330 156q162 0 257 -88.5t95 -266.5v-700h-244v627q0 18 -2 36.5t-11.5 49.5t-26.5 54t-51.5 40.5t-80.5 17.5q-43 0 -94.5 -22.5t-87.5 -81.5q-22 -35 -33.5 -79t-13.5 -76.5 t-2 -84.5v-481h-244v629q0 33 -8 64.5t-25.5 62t-52.5 49t-82 18.5q-71 0 -129 -49q-36 -31 -58 -71.5t-31 -92t-11 -87.5t-2 -93v-430h-246z" />
<glyph unicode="n" d="M129 0v1024h248v-121q32 48 80.5 81.5t98 47t81.5 18.5t55 5q159 0 245.5 -93.5t86.5 -248.5v-713h-242v575q0 240 -180 240q-73 0 -129 -47q-55 -45 -75.5 -117t-20.5 -207v-444h-248z" />
<glyph unicode="o" horiz-adv-x="1193" d="M72 516q0 76 19.5 150.5t61.5 145t102 124.5t148 86.5t193 32.5q70 0 140.5 -18t141 -60t124.5 -102.5t87.5 -153.5t34.5 -205q0 -83 -20.5 -162t-63 -149t-103 -122.5t-146.5 -83t-187 -30.5q-108 0 -198 33t-150.5 87.5t-103 126t-61.5 147.5t-19 153zM328 522 q0 -140 74 -233.5t202 -93.5q127 0 195.5 91t68.5 218q0 63 -17 121t-50 105.5t-87 75.5t-122 28q-113 0 -188.5 -81.5t-75.5 -230.5z" />
<glyph unicode="p" horiz-adv-x="1193" d="M131 -334v1358h246v-92q117 123 280 123q200 0 328 -150q137 -163 137 -401q0 -203 -102 -346q-43 -60 -95.5 -100.5t-105 -58t-90 -24t-74.5 -6.5q-153 0 -278 115v-418h-246zM373 518q0 -137 66 -226t186 -89q32 0 62.5 7.5t64.5 29t59.5 55t42 91t16.5 130.5 q0 148 -76 225.5t-176 77.5q-62 0 -111 -27t-77 -71t-42.5 -96t-14.5 -107z" />
<glyph unicode="q" d="M51 502q0 119 33 219q47 145 164 239.5t266 94.5q85 0 162 -36.5t121 -103.5v109h243v-1358h-243v430q-23 -24 -44 -41.5t-57 -39.5t-85 -34t-107 -12q-203 0 -326 144q-127 152 -127 389zM303 504q0 -48 8.5 -91.5t27.5 -83.5t47.5 -69.5t70.5 -47t94 -17.5 q110 0 178 80.5t68 226.5q0 43 -7.5 84.5t-25.5 83.5t-45.5 73.5t-71 51.5t-98.5 20q-109 0 -177.5 -81.5t-68.5 -229.5z" />
<glyph unicode="r" horiz-adv-x="724" d="M131 0v1024h238v-145q27 56 71.5 93.5t94 52t79.5 18.5t60 3h20v-251q-17 0 -30.5 -0.5t-42 -4t-51.5 -10.5t-53 -21t-52.5 -33.5t-44 -50t-33.5 -69.5q-18 -57 -18 -168v-438h-238z" />
<glyph unicode="s" horiz-adv-x="1067" d="M45 154l184 149q97 -131 295 -131q99 0 150 39.5t51 81.5t-37.5 63.5t-114.5 34.5l-127 23q-26 4 -46 8.5t-59 16t-69 25.5t-66 39t-60 54t-40 71.5t-16 92.5q0 149 126 241.5t314 92.5q41 0 83.5 -5.5t107 -22.5t130.5 -59t120 -104l-174 -162q-40 79 -113 117.5 t-166 38.5q-22 0 -47 -4t-55 -14t-49 -33t-19 -55q0 -48 45 -70.5t164 -44.5l166 -31q124 -23 199 -95.5t75 -191.5q0 -146 -127 -248t-333 -102q-99 0 -186 19.5t-147 52t-96 59t-63 54.5z" />
<glyph unicode="t" horiz-adv-x="641" d="M8 850v174h150v365h245v-365h220v-174h-220v-508q0 -82 25 -109q28 -30 92 -30q56 0 103 12v-207q-6 -1 -29 -4t-41 -5.5t-48 -4.5t-59 -2q-160 0 -224 59t-64 189v610h-150z" />
<glyph unicode="u" horiz-adv-x="1193" d="M127 381v643h248v-590q0 -227 200 -227q78 0 128.5 37.5t70.5 77.5q39 76 39 245v457h246v-1024h-246v104q-140 -129 -332 -129q-204 0 -295 136q-37 55 -48 118.5t-11 151.5z" />
<glyph unicode="v" horiz-adv-x="980" d="M27 1024h254l213 -705l208 705h256l-337 -1024h-263z" />
<glyph unicode="w" horiz-adv-x="1536" d="M35 1024h256l178 -700l190 700h220l188 -700l182 700h256l-307 -1024h-244l-184 653l-195 -653h-243z" />
<glyph unicode="x" horiz-adv-x="1024" d="M18 0l353 549l-312 475h289l168 -258l162 258h293l-309 -475l350 -549h-283l-213 324l-205 -324h-293z" />
<glyph unicode="y" horiz-adv-x="980" d="M25 1024h264l229 -764l193 764h252l-273 -934q-20 -71 -32 -108t-35.5 -100.5t-50 -105.5t-56.5 -67q-44 -36 -93 -48.5t-116 -12.5q-77 0 -145 14v213q25 -4 67 -4q38 0 68 9.5t46.5 20.5t28.5 29.5t15.5 27.5t7.5 22z" />
<glyph unicode="z" horiz-adv-x="1024" d="M63 0v188l553 617h-497v219h821v-190l-541 -617h541v-217h-877z" />
<glyph unicode="{" horiz-adv-x="614" d="M29 573v154q72 5 107 22t52 62t17 133v371q0 157 63 222t207 65h115v-148h-35q-77 0 -102 -38t-25 -144v-346q0 -127 -34 -183t-134 -96q88 -22 128 -82.5t40 -183.5v-354q0 -98 24.5 -140.5t108.5 -42.5h29v-147h-127q-138 0 -198 66.5t-60 218.5v374q0 68 -7 107 t-30.5 62t-52 31.5t-86.5 16.5z" />
<glyph unicode="|" horiz-adv-x="505" d="M139 -293v1888h223v-1888h-223z" />
<glyph unicode="}" horiz-adv-x="614" d="M25 -156h34q77 0 102 38.5t25 144.5v346q0 127 34 182.5t134 95.5q-88 22 -128 83t-40 184v354q0 98 -24.5 140t-108.5 42h-28v148h127q137 0 198.5 -68.5t61.5 -216.5v-387q0 -44 3 -74t12.5 -52.5t19.5 -34.5t33.5 -21.5t44.5 -13.5t61 -9v-154q-72 -5 -106.5 -21.5 t-51 -60t-16.5 -131.5v-370q0 -156 -63 -223.5t-206 -67.5h-118v147z" />
<glyph unicode="~" horiz-adv-x="1482" d="M147 651q85 116 155.5 160.5t168.5 44.5q52 0 105 -16t155 -62l105 -47q69 -32 100 -41.5t61 -9.5q62 0 120 36.5t128 123.5l92 -205q-90 -111 -169.5 -157t-168.5 -46q-49 0 -101.5 16.5t-145.5 61.5l-72 35q-127 61 -213 61q-59 0 -101 -30t-128 -132z" />
<glyph unicode="&#xa1;" horiz-adv-x="512" d="M82 0v555l78 532h114l76 -532v-555h-268zM82 1163v283h268v-283h-268z" />
<glyph unicode="&#xa2;" horiz-adv-x="1024" d="M45 522q0 96 25.5 182.5t76.5 160.5t136.5 127.5t197.5 76.5v203h160v-203q47 -6 88.5 -20t72 -29.5t60 -42.5t47 -45.5t39 -51t30.5 -48t26 -46.5l-218 -102q-23 46 -34 65t-29.5 43.5t-38 35.5t-47.5 18v-631q35 10 64.5 31t46.5 43t30 48t17.5 41t7.5 28l209 -113 q-46 -132 -145.5 -214.5t-227.5 -96.5v-203h-160v203q-84 12 -153 44t-113 73t-77 94t-49.5 99.5t-26.5 97t-12.5 79.5t-2.5 53zM297 532q0 -34 3.5 -66t15 -72t30.5 -71.5t52.5 -59t78.5 -40.5v625q-180 -77 -180 -316z" />
<glyph unicode="&#xa3;" horiz-adv-x="1280" d="M100 217q0 96 63 159.5t167 63.5q66 0 149 -28q6 21 6 32q0 14 -3 31.5t-17 44.5t-37 43h-266v217h164q-86 108 -86 248q0 92 38 167.5t103 125t149.5 76t178.5 26.5q66 0 128.5 -14.5t122 -47.5t103.5 -82t71 -123.5t27 -166.5q0 -80 -2 -100h-266q10 45 10 86 q0 90 -57 154.5t-146 64.5q-75 0 -132.5 -49t-57.5 -141q0 -31 8.5 -62.5t23 -58.5t26 -45t26.5 -37.5t16 -20.5h252v-217h-160q13 -99 13 -147q0 -59 -13 -123q85 -60 142 -60q108 0 108 193v49h265q0 -39 -2 -75t-9.5 -87.5t-20 -94.5t-36.5 -87.5t-56 -75.5t-81 -51 t-109 -20q-23 0 -44 2t-46 9t-37.5 10t-43 16.5t-37 16.5t-44 21.5t-41.5 20.5q-6 -3 -35.5 -19.5t-38 -20.5t-33.5 -16.5t-38.5 -17t-35.5 -11t-42 -9t-41 -2.5q-108 0 -177 64.5t-69 168.5zM295 205q0 -14 13.5 -28.5t39.5 -14.5q55 0 82 55q-45 35 -80 35 q-27 0 -41 -15.5t-14 -31.5z" />
<glyph unicode="&#xa4;" horiz-adv-x="1363" d="M63 221l160 158q-100 143 -100 315q0 92 22.5 163.5t77.5 152.5l-157 155l143 144l158 -156q140 100 317 100q168 0 311 -100l160 158l145 -146l-159 -157q55 -87 76.5 -157t21.5 -157q0 -88 -23 -161t-77 -156l159 -160l-145 -143l-160 159q-92 -56 -158 -76t-155 -20 q-91 0 -160.5 22t-152.5 77l-160 -158zM346 696q0 -145 97.5 -242.5t242.5 -97.5q138 0 235 97.5t97 236.5q0 146 -96.5 245t-239.5 99q-142 0 -239 -97.5t-97 -240.5z" />
<glyph unicode="&#xa5;" horiz-adv-x="1236" d="M6 1405h305l305 -584l314 584h301l-297 -524h172v-203h-291l-70 -125h361v-203h-361v-350h-264v350h-362v203h360l-63 125h-297v203h182z" />
<glyph unicode="&#xa6;" horiz-adv-x="505" d="M141 -295v821h224v-821h-224zM141 770v823h224v-823h-224z" />
<glyph unicode="&#xa7;" horiz-adv-x="1323" d="M88 770q0 54 16.5 100t48 83t67.5 65t85 57q-80 71 -80 180q0 76 36 136t95 94t126.5 51.5t138.5 17.5q127 0 254 -35.5t231 -101.5l-115 -172q-15 6 -56 24t-59 25.5t-53.5 20.5t-59.5 19t-55.5 11t-60.5 5q-19 0 -41 -3t-47.5 -9.5t-42 -21t-16.5 -34.5q0 -9 2.5 -17.5 t8 -16t10.5 -13.5t14.5 -12.5t15.5 -10.5t18 -9.5t17.5 -8t18 -7.5t16.5 -7l190 -82q169 -74 238 -119q188 -122 188 -303q0 -108 -60 -194.5t-159 -133.5q84 -91 84 -188q0 -75 -38 -134t-99.5 -92.5t-130 -50t-138.5 -16.5q-130 0 -268.5 43.5t-241.5 118.5l119 168 q191 -125 383 -125q23 0 45 4t44.5 12.5t36 26.5t13.5 43q0 28 -41 57t-106 57t-143.5 59.5t-157.5 74t-144 91.5t-106 120t-41 153zM348 811q0 -28 12 -53t26 -40.5t43 -34t44.5 -26t48.5 -22.5l115 -51q72 -31 235 -113q39 29 65 72.5t26 87.5q0 36 -16 66.5t-42 54.5 t-78.5 52t-105.5 51t-143 58l-109 43q-52 -19 -86.5 -56t-34.5 -89z" />
<glyph unicode="&#xa8;" horiz-adv-x="555" d="M-45 1202v244h231v-244h-231zM365 1202v244h235v-244h-235z" />
<glyph unicode="&#xa9;" horiz-adv-x="1693" d="M119 723q0 200 97 367.5t264.5 264.5t367.5 97q196 0 364 -96t266.5 -261t98.5 -358q0 -157 -56 -295t-152.5 -236t-232.5 -155t-290 -57q-198 0 -365.5 97t-264.5 264.5t-97 367.5zM201 721q0 -133 51 -254t137 -208t205.5 -138t251.5 -51q174 0 323.5 86.5t237.5 234.5 t88 320q0 187 -84.5 339.5t-233 239t-331.5 86.5q-175 0 -323.5 -87.5t-235 -238.5t-86.5 -329zM428 719q0 205 120 341t302 136q109 0 184 -37.5t160 -132.5l-129 -133q-60 69 -105.5 95t-105.5 26q-100 0 -160.5 -80.5t-60.5 -212.5q0 -133 59.5 -212t159.5 -79 q64 0 112 26t101 89l129 -129q-83 -93 -162 -132.5t-182 -39.5q-188 0 -305 131.5t-117 343.5z" />
<glyph unicode="&#xaa;" horiz-adv-x="681" d="M80 1044q0 56 25.5 94t70 56.5t89.5 28t101.5 20.5t88.5 23v10q0 76 -97 76q-60 0 -84 -21.5t-24 -62.5l-144 10q3 75 62.5 129.5t181.5 54.5q27 0 53.5 -2.5t63 -12.5t63 -26.5t45.5 -47.5t19 -73v-337q0 -31 4 -47t20 -44h-141q-13 40 -14 46q-88 -58 -182 -58 q-82 0 -141.5 49t-59.5 135zM229 1044q0 -28 22 -43.5t62 -15.5q57 0 97.5 24.5t40.5 75.5v62q-29 -11 -75 -20.5t-74.5 -15t-50.5 -22.5t-22 -45z" />
<glyph unicode="&#xab;" horiz-adv-x="894" d="M121 500v288l291 230v-230l-181 -147l181 -141v-228zM492 500v288l292 234v-234l-176 -145l176 -143v-230z" />
<glyph unicode="&#xac;" horiz-adv-x="1482" d="M141 528v224h1159v-719h-266v495h-893z" />
<glyph unicode="&#xad;" horiz-adv-x="761" d="M84 506v231h592v-231h-592z" />
<glyph unicode="&#xae;" horiz-adv-x="1693" d="M119 723q0 200 97 367.5t264.5 264.5t367.5 97q196 0 364 -96t266.5 -261t98.5 -358q0 -157 -56 -295t-152.5 -236t-232.5 -155t-290 -57q-198 0 -365.5 97t-264.5 264.5t-97 367.5zM201 721q0 -133 51 -254t137 -208t205.5 -138t251.5 -51q174 0 323.5 86.5t237.5 234.5 t88 320q0 187 -84.5 339.5t-233 239t-331.5 86.5q-175 0 -323.5 -87.5t-235 -238.5t-86.5 -329zM539 274v914h301q155 0 221 -41q57 -35 90 -101.5t33 -146.5q0 -88 -36.5 -145.5t-119.5 -100.5l160 -379h-209l-129 347h-121v-347h-190zM729 780h119q75 0 109 28.5t34 90.5 q0 60 -33.5 88.5t-103.5 28.5h-125v-236z" />
<glyph unicode="&#xaf;" horiz-adv-x="555" d="M-72 1200v184h699v-184h-699z" />
<glyph unicode="&#xb0;" horiz-adv-x="724" d="M10 1192q0 147 102.5 250.5t249.5 103.5q148 0 250.5 -103t102.5 -251q0 -145 -104 -248.5t-249 -103.5t-248.5 103.5t-103.5 248.5zM215 1192q0 -60 43.5 -104t103.5 -44t104 44t44 104q0 61 -43.5 103t-104.5 42q-62 0 -104.5 -42t-42.5 -103z" />
<glyph unicode="&#xb1;" horiz-adv-x="1482" d="M190 0v219h1102v-219h-1102zM190 748v219h418v407h266v-407h418v-219h-418v-416h-266v416h-418z" />
<glyph unicode="&#xb2;" horiz-adv-x="768" d="M70 1042l2 23q2 27 4 44.5t10 55.5t20 64.5t35.5 60t54 54.5t78 36t105.5 15q130 0 212.5 -74t82.5 -207q0 -42 -10 -82.5t-24.5 -73.5t-43.5 -70t-52 -63t-66 -63.5t-70.5 -60t-79.5 -63.5q-4 -4 -6.5 -5.5t-6 -4.5t-6.5 -5h383v-146h-618v135q409 282 409 496 q0 67 -34.5 97t-75.5 30q-27 0 -47.5 -7.5t-33 -22.5t-21 -29.5t-12.5 -38t-6 -38t-3 -39.5t-2 -32z" />
<glyph unicode="&#xb3;" horiz-adv-x="768" d="M43 756v22h178v-8q0 -15 2 -30.5t11 -40.5t23.5 -43.5t43.5 -32t68 -13.5q61 0 99 40.5t38 103.5q0 36 -15 62t-33.5 38.5t-44.5 19.5t-39 8t-26 1h-51v145h61q129 0 129 100q0 49 -30.5 80t-87.5 31q-35 0 -59.5 -12.5t-38 -36t-20.5 -46t-11 -54.5l-174 38 q10 72 42.5 126t78.5 83.5t95.5 43.5t102.5 14q72 0 129.5 -23.5t90 -61t49 -79.5t16.5 -84q0 -13 -1 -24.5t-9 -37.5t-22 -46.5t-44.5 -42.5t-71.5 -35q36 -13 57 -23.5t50.5 -34t44 -62t14.5 -91.5q0 -93 -46 -160t-117 -98t-158 -31q-43 0 -84.5 7.5t-86 28.5t-77.5 53 t-54.5 85t-21.5 121z" />
<glyph unicode="&#xb4;" horiz-adv-x="555" d="M74 1174l102 272h305l-221 -272h-186z" />
<glyph unicode="&#xb5;" horiz-adv-x="1222" d="M154 -442v1466h252v-475q0 -128 8 -185.5t32 -93.5q23 -35 64.5 -56t87.5 -21q95 0 148 80t53 225v526h250v-715q0 -72 14.5 -99.5t54.5 -27.5q17 0 58 17v-201q-70 -18 -136 -18q-89 0 -138.5 37t-74.5 124q-40 -89 -91.5 -125t-137.5 -36q-70 0 -117.5 27.5t-87.5 90.5 q6 -481 6 -540h-245z" />
<glyph unicode="&#xb6;" horiz-adv-x="1310" d="M145 1028q0 89 25.5 162t80 131.5t149.5 91.5t223 33h477v-143h-72v-1645h-151v1645h-263v-1645h-151v979q-150 30 -234 131.5t-84 259.5z" />
<glyph unicode="&#xb7;" horiz-adv-x="448" d="M88 444v299h272v-299h-272z" />
<glyph unicode="&#xb8;" horiz-adv-x="555" d="M72 -188l204 213h93l-93 -119h15q58 0 98.5 -13.5t59.5 -35.5t26.5 -42t7.5 -40q0 -156 -317 -156q-55 0 -84 2v64q27 -2 37 -2q129 0 129 53q0 29 -36 39t-99 10q-17 0 -41 -4v31z" />
<glyph unicode="&#xb9;" horiz-adv-x="768" d="M131 1094v125h43q19 0 35.5 1.5t48.5 10.5t55 26t43 52t25 84h145v-916h-174v561q0 31 -16.5 43.5t-75.5 12.5h-129z" />
<glyph unicode="&#xba;" horiz-adv-x="681" d="M49 1155q0 131 82 219t215 88q130 0 208.5 -87.5t78.5 -217.5q0 -55 -17.5 -107t-51.5 -98t-92.5 -74t-133.5 -28q-129 0 -209 89.5t-80 215.5zM199 1157q0 -29 6.5 -57t21.5 -57t44.5 -46.5t70.5 -17.5q58 0 101.5 45.5t43.5 136.5q0 29 -7.5 58t-23 56t-44 43.5 t-66.5 16.5q-56 0 -101.5 -44t-45.5 -134z" />
<glyph unicode="&#xbb;" horiz-adv-x="894" d="M106 264v232l177 147l-177 141v232l293 -232v-288zM481 268v228l178 149l-178 139v230l291 -230v-288z" />
<glyph unicode="&#xbc;" horiz-adv-x="1792" d="M131 1094v125h43q19 0 35.5 1.5t48.5 10.5t55 26t43 52t25 84h145v-916h-174v561q0 31 -16.5 43.5t-75.5 12.5h-129zM487 -12l646 1401l139 -66l-643 -1399zM1069 207v129l397 569h170v-555h115v-147h-121v-203h-164v207h-397zM1251 352h222q0 149 4 346z" />
<glyph unicode="&#xbd;" horiz-adv-x="1792" d="M131 1094v125h43q19 0 35.5 1.5t48.5 10.5t55 26t43 52t25 84h145v-916h-174v561q0 31 -16.5 43.5t-75.5 12.5h-129zM469 -12l645 1401l139 -66l-643 -1399zM1096 565q0 20 1 39.5t7.5 57.5t17.5 69t34 68t54.5 62t81 42t111.5 17q70 0 124.5 -20.5t86 -51t51.5 -71 t26.5 -75t6.5 -67.5q0 -120 -75.5 -219.5t-291.5 -270.5h385v-145h-618v137q106 72 185.5 142.5t121 122.5t66 101.5t30.5 76.5t6 51q0 67 -34.5 97t-75.5 30q-30 0 -52.5 -10.5t-34 -24.5t-19 -38.5t-10 -43t-5 -47t-4.5 -41.5z" />
<glyph unicode="&#xbe;" horiz-adv-x="1792" d="M43 756v22h178v-8q0 -15 2 -30.5t11 -40.5t23.5 -43.5t43.5 -32t68 -13.5q61 0 99 40.5t38 103.5q0 36 -15 62t-33.5 38.5t-44.5 19.5t-39 8t-26 1h-51v145h61q129 0 129 100q0 49 -30.5 80t-87.5 31q-35 0 -59.5 -12.5t-38 -36t-20.5 -46t-11 -54.5l-174 38 q10 72 42.5 126t78.5 83.5t95.5 43.5t102.5 14q72 0 129.5 -23.5t90 -61t49 -79.5t16.5 -84q0 -13 -1 -24.5t-9 -37.5t-22 -46.5t-44.5 -42.5t-71.5 -35q36 -13 57 -23.5t50.5 -34t44 -62t14.5 -91.5q0 -93 -46 -160t-117 -98t-158 -31q-43 0 -84.5 7.5t-86 28.5t-77.5 53 t-54.5 85t-21.5 121zM537 -12l645 1401l137 -66l-641 -1399zM1069 207v129l397 569h170v-555h115v-147h-121v-203h-164v207h-397zM1251 352h222q0 149 4 346z" />
<glyph unicode="&#xbf;" d="M53 403q0 120 56 203.5t174 165.5q87 60 111 102.5t24 141.5v57h239v-51q0 -223 -57 -303q-22 -32 -59 -61.5t-70.5 -52t-65 -49.5t-50.5 -65t-19 -88q0 -83 65 -138.5t150 -55.5q114 0 178 76.5t64 191.5l247 -28q-11 -123 -39 -191q-56 -143 -179 -213t-285 -70 q-96 0 -183 28.5t-154 81.5t-107 135.5t-40 182.5zM399 1165v281h273v-281h-273z" />
<glyph unicode="&#xc0;" horiz-adv-x="1323" d="M12 0l490 1446h307l494 -1446h-289l-84 283h-543l-84 -283h-291zM379 1833h291l112 -248h-184zM459 520h399l-199 666z" />
<glyph unicode="&#xc1;" horiz-adv-x="1323" d="M12 0l490 1446h307l494 -1446h-289l-84 283h-543l-84 -283h-291zM459 520h399l-199 666zM547 1587l110 246h293l-221 -246h-182z" />
<glyph unicode="&#xc2;" horiz-adv-x="1323" d="M12 0l490 1446h307l494 -1446h-289l-84 283h-543l-84 -283h-291zM336 1583l207 250h239l215 -250h-247l-88 115l-87 -115h-239zM459 520h399l-199 666z" />
<glyph unicode="&#xc3;" horiz-adv-x="1323" d="M12 0l490 1446h307l494 -1446h-289l-84 283h-543l-84 -283h-291zM334 1575q23 256 196 256q58 0 147.5 -36t115.5 -36q23 0 36.5 13.5t16.5 26t6 34.5h156q-3 -44 -7 -73t-16 -68t-31 -62t-54 -40t-83 -17q-59 0 -146.5 38t-123.5 38q-52 0 -60 -74h-153zM459 520h399 l-199 666z" />
<glyph unicode="&#xc4;" horiz-adv-x="1323" d="M12 0l490 1446h307l494 -1446h-289l-84 283h-543l-84 -283h-291zM350 1581v252h230v-252h-230zM459 520h399l-199 666zM760 1581v252h233v-252h-233z" />
<glyph unicode="&#xc5;" horiz-adv-x="1323" d="M12 0l490 1446h307l494 -1446h-289l-84 283h-543l-84 -283h-291zM459 520h399l-199 666zM461 1765q0 85 61 146t148 61q86 0 146.5 -62t60.5 -147q0 -86 -60.5 -146.5t-148.5 -60.5q-86 0 -146.5 60.5t-60.5 148.5zM582 1763q0 -35 27 -60.5t61 -25.5q35 0 59.5 26 t24.5 62q0 35 -25.5 59.5t-60.5 24.5t-60.5 -25.5t-25.5 -60.5z" />
<glyph unicode="&#xc6;" horiz-adv-x="2134" d="M12 0l856 1446h1186v-242h-754v-344h656v-237h-656v-377h785v-246h-1057v338h-508l-192 -338h-316zM657 582h371v661z" />
<glyph unicode="&#xc7;" horiz-adv-x="1409" d="M76 737q0 101 22.5 201.5t74.5 200t129 175t196 122.5t264 47q108 0 198.5 -27t152.5 -70t111 -103.5t77.5 -120t48.5 -126.5l-269 -69q-12 117 -100 192.5t-209 75.5q-181 0 -292 -132.5t-111 -369.5q0 -53 7.5 -107t24.5 -113.5t48 -110.5t73.5 -93t106.5 -66t141 -24 q131 0 223 85t127 206l256 -107q-18 -46 -42 -91.5t-74.5 -110t-112 -112t-157.5 -84t-208 -40.5l-45 -59h15q58 0 98.5 -13.5t59.5 -35.5t26.5 -42t7.5 -40q0 -156 -317 -156q-55 0 -84 2v64q27 -2 37 -2q129 0 129 53q0 29 -36.5 39t-99.5 10q-17 0 -41 -4v31l150 155 q-97 9 -185 42.5t-165.5 96.5t-134 150t-89 210.5t-32.5 270.5z" />
<glyph unicode="&#xc8;" horiz-adv-x="1280" d="M160 0v1446h1028v-242h-762v-340h698v-233h-698v-387h813v-244h-1079zM356 1833h291l113 -248h-185z" />
<glyph unicode="&#xc9;" horiz-adv-x="1280" d="M160 0v1446h1028v-242h-762v-340h698v-233h-698v-387h813v-244h-1079zM526 1587l111 246h293l-221 -246h-183z" />
<glyph unicode="&#xca;" horiz-adv-x="1280" d="M160 0v1446h1028v-242h-762v-340h698v-233h-698v-387h813v-244h-1079zM315 1583l207 250h240l215 -250h-248l-88 115l-86 -115h-240z" />
<glyph unicode="&#xcb;" horiz-adv-x="1280" d="M160 0v1446h1028v-242h-762v-340h698v-233h-698v-387h813v-244h-1079zM322 1581v252h229v-252h-229zM731 1581v252h234v-252h-234z" />
<glyph unicode="&#xcc;" horiz-adv-x="598" d="M16 1833h291l113 -248h-184zM164 0v1446h266v-1446h-266z" />
<glyph unicode="&#xcd;" horiz-adv-x="598" d="M164 0v1446h266v-1446h-266zM184 1587l111 246h293l-221 -246h-183z" />
<glyph unicode="&#xce;" horiz-adv-x="598" d="M-27 1583l207 250h240l215 -250h-248l-88 115l-86 -115h-240zM164 0v1446h266v-1446h-266z" />
<glyph unicode="&#xcf;" horiz-adv-x="598" d="M-20 1581v252h229v-252h-229zM164 0v1446h266v-1446h-266zM389 1581v252h234v-252h-234z" />
<glyph unicode="&#xd0;" horiz-adv-x="1449" d="M6 668v184h139v594h476q117 0 181 -6t120 -23q92 -28 171 -84.5t142 -141.5t99 -207.5t36 -268.5q0 -72 -9 -142t-35 -153t-67.5 -151.5t-113 -129t-164.5 -94.5q-79 -29 -159 -37t-191 -8h-486v668h-139zM416 244h114q220 0 301 22q129 34 190.5 141.5t61.5 303.5 q0 385 -268 469q-75 22 -197 22h-202v-350h315v-184h-315v-424z" />
<glyph unicode="&#xd1;" horiz-adv-x="1449" d="M168 0v1446h244l641 -1020q-31 987 -33 1020h266v-1446h-237l-633 1014q16 -987 16 -1014h-264zM397 1575q23 256 197 256q58 0 147 -36t115 -36q23 0 36.5 13.5t16.5 26t6 34.5h156q-3 -44 -7 -73t-16 -68t-30.5 -62t-53.5 -40t-83 -17q-59 0 -147 38t-124 38 q-51 0 -59 -74h-154z" />
<glyph unicode="&#xd2;" horiz-adv-x="1579" d="M98 721q0 158 50.5 298t140 242.5t220.5 162t284 59.5q129 0 240.5 -40.5t193.5 -111.5t140.5 -166t88 -205.5t29.5 -228.5q0 -73 -11 -146t-36.5 -149.5t-63.5 -144.5t-95 -128.5t-127 -104.5t-164 -69.5t-202 -25.5q-156 0 -287 61.5t-217.5 165.5t-135 241.5 t-48.5 289.5zM377 731q0 -71 13.5 -140.5t45 -138t78.5 -120.5t119.5 -84.5t161.5 -32.5q82 0 156 31.5t133 91.5t93.5 156t34.5 215q0 79 -16 154t-50 142.5t-82.5 118.5t-119 81t-153.5 30q-183 0 -298.5 -135.5t-115.5 -368.5zM506 1833h291l112 -248h-184z" />
<glyph unicode="&#xd3;" horiz-adv-x="1579" d="M98 721q0 158 50.5 298t140 242.5t220.5 162t284 59.5q129 0 240.5 -40.5t193.5 -111.5t140.5 -166t88 -205.5t29.5 -228.5q0 -73 -11 -146t-36.5 -149.5t-63.5 -144.5t-95 -128.5t-127 -104.5t-164 -69.5t-202 -25.5q-156 0 -287 61.5t-217.5 165.5t-135 241.5 t-48.5 289.5zM377 731q0 -71 13.5 -140.5t45 -138t78.5 -120.5t119.5 -84.5t161.5 -32.5q82 0 156 31.5t133 91.5t93.5 156t34.5 215q0 79 -16 154t-50 142.5t-82.5 118.5t-119 81t-153.5 30q-183 0 -298.5 -135.5t-115.5 -368.5zM676 1587l110 246h293l-221 -246h-182z" />
<glyph unicode="&#xd4;" horiz-adv-x="1579" d="M98 721q0 158 50.5 298t140 242.5t220.5 162t284 59.5q129 0 240.5 -40.5t193.5 -111.5t140.5 -166t88 -205.5t29.5 -228.5q0 -73 -11 -146t-36.5 -149.5t-63.5 -144.5t-95 -128.5t-127 -104.5t-164 -69.5t-202 -25.5q-156 0 -287 61.5t-217.5 165.5t-135 241.5 t-48.5 289.5zM377 731q0 -71 13.5 -140.5t45 -138t78.5 -120.5t119.5 -84.5t161.5 -32.5q82 0 156 31.5t133 91.5t93.5 156t34.5 215q0 79 -16 154t-50 142.5t-82.5 118.5t-119 81t-153.5 30q-183 0 -298.5 -135.5t-115.5 -368.5zM463 1583l207 250h239l215 -250h-247 l-89 115l-86 -115h-239z" />
<glyph unicode="&#xd5;" horiz-adv-x="1579" d="M98 721q0 158 50.5 298t140 242.5t220.5 162t284 59.5q129 0 240.5 -40.5t193.5 -111.5t140.5 -166t88 -205.5t29.5 -228.5q0 -73 -11 -146t-36.5 -149.5t-63.5 -144.5t-95 -128.5t-127 -104.5t-164 -69.5t-202 -25.5q-156 0 -287 61.5t-217.5 165.5t-135 241.5 t-48.5 289.5zM377 731q0 -71 13.5 -140.5t45 -138t78.5 -120.5t119.5 -84.5t161.5 -32.5q82 0 156 31.5t133 91.5t93.5 156t34.5 215q0 79 -16 154t-50 142.5t-82.5 118.5t-119 81t-153.5 30q-183 0 -298.5 -135.5t-115.5 -368.5zM461 1575q23 256 196 256q58 0 147.5 -36 t115.5 -36q23 0 36.5 13.5t16.5 26t6 34.5h156q-3 -44 -7 -73t-16 -68t-31 -62t-54 -40t-83 -17q-59 0 -146.5 38t-123.5 38q-52 0 -60 -74h-153z" />
<glyph unicode="&#xd6;" horiz-adv-x="1579" d="M98 721q0 158 50.5 298t140 242.5t220.5 162t284 59.5q129 0 240.5 -40.5t193.5 -111.5t140.5 -166t88 -205.5t29.5 -228.5q0 -73 -11 -146t-36.5 -149.5t-63.5 -144.5t-95 -128.5t-127 -104.5t-164 -69.5t-202 -25.5q-156 0 -287 61.5t-217.5 165.5t-135 241.5 t-48.5 289.5zM377 731q0 -71 13.5 -140.5t45 -138t78.5 -120.5t119.5 -84.5t161.5 -32.5q82 0 156 31.5t133 91.5t93.5 156t34.5 215q0 79 -16 154t-50 142.5t-82.5 118.5t-119 81t-153.5 30q-183 0 -298.5 -135.5t-115.5 -368.5zM473 1581v252h229v-252h-229zM883 1581v252 h233v-252h-233z" />
<glyph unicode="&#xd7;" horiz-adv-x="1482" d="M264 930l185 190l315 -305l291 301l155 -151l-290 -301l317 -308l-186 -190l-318 307l-291 -301l-155 152l291 301z" />
<glyph unicode="&#xd8;" horiz-adv-x="1579" d="M47 203l143 127q-37 73 -53.5 114t-29.5 111t-13 162q0 148 40.5 275t109 216t159 152t191 93t205.5 30q272 0 469 -197l127 113l121 -137l-136 -121q107 -198 107 -420q0 -109 -25 -215t-80 -205t-135 -173.5t-199 -119.5t-262 -45q-81 0 -152.5 15.5t-118.5 35.5 t-94 54t-70 56t-56 58l-131 -114zM365 745q0 -79 10.5 -125t34.5 -98l665 594q-23 23 -40.5 37.5t-52.5 38t-80.5 35.5t-98.5 12q-125 0 -226.5 -70t-156.5 -182.5t-55 -241.5zM500 362q96 -151 284 -151q81 0 157 32t138.5 92.5t100 157.5t37.5 216q0 134 -48 245z" />
<glyph unicode="&#xd9;" horiz-adv-x="1492" d="M164 586v860h272v-889q0 -114 15 -160q54 -172 297 -172q16 0 30.5 1t47 5t60.5 15t59 27.5t56 46.5t39 69q19 56 19 182v875h270v-895q0 -104 -4 -155t-20 -101q-15 -46 -43 -90.5t-76 -89t-109.5 -77.5t-149.5 -54t-190 -21q-90 0 -173.5 18.5t-159.5 56t-133.5 102.5 t-84.5 151q-11 36 -16 81t-5.5 80t-0.5 134zM463 1833h291l112 -248h-184z" />
<glyph unicode="&#xda;" horiz-adv-x="1492" d="M164 586v860h272v-889q0 -114 15 -160q54 -172 297 -172q16 0 30.5 1t47 5t60.5 15t59 27.5t56 46.5t39 69q19 56 19 182v875h270v-895q0 -104 -4 -155t-20 -101q-15 -46 -43 -90.5t-76 -89t-109.5 -77.5t-149.5 -54t-190 -21q-90 0 -173.5 18.5t-159.5 56t-133.5 102.5 t-84.5 151q-11 36 -16 81t-5.5 80t-0.5 134zM633 1587l110 246h293l-221 -246h-182z" />
<glyph unicode="&#xdb;" horiz-adv-x="1492" d="M164 586v860h272v-889q0 -114 15 -160q54 -172 297 -172q16 0 30.5 1t47 5t60.5 15t59 27.5t56 46.5t39 69q19 56 19 182v875h270v-895q0 -104 -4 -155t-20 -101q-15 -46 -43 -90.5t-76 -89t-109.5 -77.5t-149.5 -54t-190 -21q-90 0 -173.5 18.5t-159.5 56t-133.5 102.5 t-84.5 151q-11 36 -16 81t-5.5 80t-0.5 134zM422 1583l207 250h239l215 -250h-247l-88 115l-86 -115h-240z" />
<glyph unicode="&#xdc;" horiz-adv-x="1492" d="M164 586v860h272v-889q0 -114 15 -160q54 -172 297 -172q16 0 30.5 1t47 5t60.5 15t59 27.5t56 46.5t39 69q19 56 19 182v875h270v-895q0 -104 -4 -155t-20 -101q-15 -46 -43 -90.5t-76 -89t-109.5 -77.5t-149.5 -54t-190 -21q-90 0 -173.5 18.5t-159.5 56t-133.5 102.5 t-84.5 151q-11 36 -16 81t-5.5 80t-0.5 134zM426 1581v252h229v-252h-229zM836 1581v252h233v-252h-233z" />
<glyph unicode="&#xdd;" horiz-adv-x="1280" d="M20 1446h308l313 -598l315 598h304l-488 -875v-571h-268v571zM526 1587l111 246h293l-221 -246h-183z" />
<glyph unicode="&#xde;" horiz-adv-x="1280" d="M168 0v1446h270v-205h217q42 0 67.5 -0.5t69 -4t74 -10t72 -19.5t73.5 -31.5t67 -47t65 -65.5q100 -121 100 -295q0 -171 -80 -289q-36 -52 -84 -89t-92.5 -56.5t-101.5 -30.5t-96.5 -13.5t-90.5 -2.5h-260v-287h-270zM438 508h228q156 0 227.5 66.5t71.5 197.5 q0 238 -293 238h-234v-502z" />
<glyph unicode="&#xdf;" d="M133 0v1083q0 100 37 176.5t99.5 121t138.5 67t161 22.5q116 0 207.5 -34t144.5 -88.5t80 -115t27 -120.5q0 -95 -52 -168t-132 -98q30 -11 58 -27t61.5 -48.5t58 -74t41 -106t16.5 -141.5q0 -98 -26 -181.5t-75.5 -147.5t-129.5 -100t-182 -36q-121 0 -195 32v238 q72 -45 139 -45q98 0 154.5 77.5t56.5 180.5q0 143 -85.5 213t-229.5 70q-25 0 -35 -2v184q1 0 22 -2t39 -2q98 0 157 47.5t59 124.5q0 11 -2.5 25.5t-13.5 38t-28 42t-51.5 32t-79.5 13.5q-59 0 -99 -19t-59 -54t-26.5 -71t-7.5 -83v-1024h-248z" />
<glyph unicode="&#xe0;" horiz-adv-x="1110" d="M53 289q0 280 365 346q211 40 315 76q0 33 -6.5 57.5t-23.5 47.5t-54 35.5t-92 12.5q-53 0 -92.5 -11t-61 -27t-34 -38.5t-16 -40t-3.5 -36.5l-250 14q1 23 3 40t12.5 54.5t27 65t50.5 61.5t79.5 56t117 37.5t159.5 15.5q219 0 324.5 -75.5t105.5 -215.5v-598 q0 -60 7.5 -89t37.5 -77h-291l-6 80q-135 -105 -301 -105q-170 0 -271.5 90.5t-101.5 223.5zM283 1446h305l106 -272h-182zM313 311q0 -56 40.5 -90.5t127.5 -34.5q96 0 174 49t78 138v137q-83 -40 -194 -57q-51 -7 -84.5 -15t-69.5 -23.5t-54 -41t-18 -62.5z" />
<glyph unicode="&#xe1;" horiz-adv-x="1110" d="M53 289q0 280 365 346q211 40 315 76q0 33 -6.5 57.5t-23.5 47.5t-54 35.5t-92 12.5q-53 0 -92.5 -11t-61 -27t-34 -38.5t-16 -40t-3.5 -36.5l-250 14q1 23 3 40t12.5 54.5t27 65t50.5 61.5t79.5 56t117 37.5t159.5 15.5q219 0 324.5 -75.5t105.5 -215.5v-598 q0 -60 7.5 -89t37.5 -77h-291l-6 80q-135 -105 -301 -105q-170 0 -271.5 90.5t-101.5 223.5zM313 311q0 -56 40.5 -90.5t127.5 -34.5q96 0 174 49t78 138v137q-83 -40 -194 -57q-51 -7 -84.5 -15t-69.5 -23.5t-54 -41t-18 -62.5zM428 1174l102 272h306l-222 -272h-186z" />
<glyph unicode="&#xe2;" horiz-adv-x="1110" d="M53 289q0 280 365 346q211 40 315 76q0 33 -6.5 57.5t-23.5 47.5t-54 35.5t-92 12.5q-53 0 -92.5 -11t-61 -27t-34 -38.5t-16 -40t-3.5 -36.5l-250 14q1 23 3 40t12.5 54.5t27 65t50.5 61.5t79.5 56t117 37.5t159.5 15.5q219 0 324.5 -75.5t105.5 -215.5v-598 q0 -60 7.5 -89t37.5 -77h-291l-6 80q-135 -105 -301 -105q-170 0 -271.5 90.5t-101.5 223.5zM207 1171l227 275h242l229 -275h-252l-96 138l-102 -138h-248zM313 311q0 -56 40.5 -90.5t127.5 -34.5q96 0 174 49t78 138v137q-83 -40 -194 -57q-51 -7 -84.5 -15t-69.5 -23.5 t-54 -41t-18 -62.5z" />
<glyph unicode="&#xe3;" horiz-adv-x="1110" d="M53 289q0 280 365 346q211 40 315 76q0 33 -6.5 57.5t-23.5 47.5t-54 35.5t-92 12.5q-53 0 -92.5 -11t-61 -27t-34 -38.5t-16 -40t-3.5 -36.5l-250 14q1 23 3 40t12.5 54.5t27 65t50.5 61.5t79.5 56t117 37.5t159.5 15.5q219 0 324.5 -75.5t105.5 -215.5v-598 q0 -60 7.5 -89t37.5 -77h-291l-6 80q-135 -105 -301 -105q-170 0 -271.5 90.5t-101.5 223.5zM207 1196q0 46 9.5 88.5t30 82t60 63.5t92.5 24q40 0 135 -38t121 -38q28 0 40.5 16.5t21.5 51.5h155q-2 -48 -11 -89.5t-29 -80t-57 -60.5t-87 -22t-143.5 40t-124.5 40 q-52 0 -60 -78h-153zM313 311q0 -56 40.5 -90.5t127.5 -34.5q96 0 174 49t78 138v137q-83 -40 -194 -57q-51 -7 -84.5 -15t-69.5 -23.5t-54 -41t-18 -62.5z" />
<glyph unicode="&#xe4;" horiz-adv-x="1110" d="M53 289q0 280 365 346q211 40 315 76q0 33 -6.5 57.5t-23.5 47.5t-54 35.5t-92 12.5q-53 0 -92.5 -11t-61 -27t-34 -38.5t-16 -40t-3.5 -36.5l-250 14q1 23 3 40t12.5 54.5t27 65t50.5 61.5t79.5 56t117 37.5t159.5 15.5q219 0 324.5 -75.5t105.5 -215.5v-598 q0 -60 7.5 -89t37.5 -77h-291l-6 80q-135 -105 -301 -105q-170 0 -271.5 90.5t-101.5 223.5zM219 1202v244h232v-244h-232zM313 311q0 -56 40.5 -90.5t127.5 -34.5q96 0 174 49t78 138v137q-83 -40 -194 -57q-51 -7 -84.5 -15t-69.5 -23.5t-54 -41t-18 -62.5zM629 1202v244 h235v-244h-235z" />
<glyph unicode="&#xe5;" horiz-adv-x="1110" d="M53 289q0 280 365 346q211 40 315 76q0 33 -6.5 57.5t-23.5 47.5t-54 35.5t-92 12.5q-53 0 -92.5 -11t-61 -27t-34 -38.5t-16 -40t-3.5 -36.5l-250 14q1 23 3 40t12.5 54.5t27 65t50.5 61.5t79.5 56t117 37.5t159.5 15.5q219 0 324.5 -75.5t105.5 -215.5v-598 q0 -60 7.5 -89t37.5 -77h-291l-6 80q-135 -105 -301 -105q-170 0 -271.5 90.5t-101.5 223.5zM313 311q0 -56 40.5 -90.5t127.5 -34.5q96 0 174 49t78 138v137q-83 -40 -194 -57q-51 -7 -84.5 -15t-69.5 -23.5t-54 -41t-18 -62.5zM334 1356q0 86 61.5 146.5t147.5 60.5 q54 0 96 -22t65 -55t34.5 -66.5t11.5 -63.5q0 -87 -61 -148t-146 -61q-87 0 -148 61t-61 148zM455 1354q0 -35 25.5 -60.5t60.5 -25.5q36 0 61 26t25 60q0 36 -25 61t-61 25q-40 0 -63 -26.5t-23 -59.5z" />
<glyph unicode="&#xe6;" horiz-adv-x="1792" d="M59 281q0 118 84 202q52 52 137 86.5t236 65.5q151 29 229 63q0 88 -51.5 133.5t-140.5 45.5q-104 0 -154.5 -45.5t-50.5 -120.5h-237q2 23 4.5 40.5t14 56t28 67.5t49 64.5t75 59.5t108.5 40t147 16q125 0 208.5 -32.5t143.5 -100.5q31 28 52.5 44t64 40.5t97 36.5 t120.5 12q31 0 56 -1.5t79.5 -13t97 -32t95 -64.5t88.5 -104.5t63 -157t31 -217.5h-748q3 -37 11.5 -71t29 -73t49.5 -67.5t77 -47t108 -18.5q145 0 247 140l195 -121q-29 -36 -49.5 -57.5t-67 -60t-92.5 -61.5t-118 -41t-152 -18q-41 0 -72 3.5t-81 17t-108 46.5t-120 85 q-93 -83 -189 -117.5t-219 -34.5q-84 0 -150.5 19.5t-107.5 51t-68.5 73.5t-38 83.5t-10.5 84.5zM319 285q0 -53 42.5 -94t132.5 -41q136 0 206 104q25 36 33.5 86.5t11.5 151.5q-38 -15 -76 -26.5t-59 -16.5t-72 -14.5t-73 -14.5q-146 -29 -146 -135zM987 641h455 q-20 96 -79 155.5t-153 59.5q-97 0 -161 -68q-56 -60 -62 -147z" />
<glyph unicode="&#xe7;" horiz-adv-x="1058" d="M49 512q0 102 34 197.5t97.5 173.5t164 125t222.5 47q76 0 144 -21.5t115 -53t86 -73t61 -76t35 -67.5l-220 -102q-25 75 -83 124.5t-150 49.5q-119 0 -185.5 -91.5t-66.5 -226.5q0 -139 68.5 -229t189.5 -90q175 0 248 200l209 -110q-48 -137 -160.5 -220.5 t-253.5 -97.5l-51 -65h14q58 0 99 -13.5t60 -35.5t26.5 -42t7.5 -40q0 -156 -318 -156q-55 0 -84 2v64q27 -2 37 -2q129 0 129 53q0 29 -36 39t-99 10q-17 0 -41 -4v31l154 161q-202 19 -327.5 170.5t-125.5 368.5z" />
<glyph unicode="&#xe8;" d="M70 518q0 133 42.5 238t115 169t163.5 97t193 33q113 0 202 -35t144.5 -92.5t91.5 -136t50.5 -159t14.5 -169.5h-757q2 -20 8.5 -46.5t26.5 -64.5t49.5 -68.5t83 -52.5t120.5 -22q61 0 111.5 16t82 42t48 45t27.5 38l209 -121q-192 -260 -500 -260q-233 0 -379.5 149 t-146.5 400zM281 1446h305l106 -272h-182zM338 643h479q-2 20 -6.5 42.5t-20.5 55t-39 57t-65.5 42.5t-97.5 18q-57 0 -103 -19t-71 -44t-43 -59.5t-23.5 -53.5t-9.5 -39z" />
<glyph unicode="&#xe9;" d="M70 518q0 133 42.5 238t115 169t163.5 97t193 33q113 0 202 -35t144.5 -92.5t91.5 -136t50.5 -159t14.5 -169.5h-757q2 -20 8.5 -46.5t26.5 -64.5t49.5 -68.5t83 -52.5t120.5 -22q61 0 111.5 16t82 42t48 45t27.5 38l209 -121q-192 -260 -500 -260q-233 0 -379.5 149 t-146.5 400zM338 643h479q-2 20 -6.5 42.5t-20.5 55t-39 57t-65.5 42.5t-97.5 18q-57 0 -103 -19t-71 -44t-43 -59.5t-23.5 -53.5t-9.5 -39zM469 1174l102 272h306l-222 -272h-186z" />
<glyph unicode="&#xea;" d="M70 518q0 133 42.5 238t115 169t163.5 97t193 33q113 0 202 -35t144.5 -92.5t91.5 -136t50.5 -159t14.5 -169.5h-757q2 -20 8.5 -46.5t26.5 -64.5t49.5 -68.5t83 -52.5t120.5 -22q61 0 111.5 16t82 42t48 45t27.5 38l209 -121q-192 -260 -500 -260q-233 0 -379.5 149 t-146.5 400zM227 1171l228 275h241l230 -275h-252l-96 138l-103 -138h-248zM338 643h479q-2 20 -6.5 42.5t-20.5 55t-39 57t-65.5 42.5t-97.5 18q-57 0 -103 -19t-71 -44t-43 -59.5t-23.5 -53.5t-9.5 -39z" />
<glyph unicode="&#xeb;" d="M70 518q0 133 42.5 238t115 169t163.5 97t193 33q113 0 202 -35t144.5 -92.5t91.5 -136t50.5 -159t14.5 -169.5h-757q2 -20 8.5 -46.5t26.5 -64.5t49.5 -68.5t83 -52.5t120.5 -22q61 0 111.5 16t82 42t48 45t27.5 38l209 -121q-192 -260 -500 -260q-233 0 -379.5 149 t-146.5 400zM256 1202v244h231v-244h-231zM338 643h479q-2 20 -6.5 42.5t-20.5 55t-39 57t-65.5 42.5t-97.5 18q-57 0 -103 -19t-71 -44t-43 -59.5t-23.5 -53.5t-9.5 -39zM666 1202v244h235v-244h-235z" />
<glyph unicode="&#xec;" horiz-adv-x="512" d="M-41 1446h305l107 -272h-183zM133 0v1024h244v-1024h-244z" />
<glyph unicode="&#xed;" horiz-adv-x="512" d="M133 0v1024h244v-1024h-244zM150 1174l102 272h305l-221 -272h-186z" />
<glyph unicode="&#xee;" horiz-adv-x="512" d="M-92 1171l227 275h242l229 -275h-252l-96 138l-102 -138h-248zM133 0v1024h244v-1024h-244z" />
<glyph unicode="&#xef;" horiz-adv-x="512" d="M-63 1202v244h231v-244h-231zM133 0v1024h244v-1024h-244zM346 1202v244h236v-244h-236z" />
<glyph unicode="&#xf0;" horiz-adv-x="1193" d="M72 522q0 124 42.5 227.5t112.5 169.5t157 102t179 36q74 0 119.5 -19.5t89.5 -58.5q-25 106 -102 205l-334 -90l-39 108l293 80q-21 18 -53.5 51.5t-44.5 44.5l229 99q21 -19 39.5 -39t41 -46t36.5 -42l188 51l41 -109l-156 -43q67 -107 103 -182q42 -85 77 -214 t35 -275q0 -132 -32.5 -242t-96 -192.5t-165 -128.5t-232.5 -46q-87 0 -161.5 20.5t-127.5 54t-95 80t-68.5 96.5t-44 105t-24.5 103t-7 94zM328 518q0 -83 28.5 -154t94 -120t157.5 -49q67 0 118.5 28t81.5 74.5t45 100t15 110.5q0 78 -23.5 141.5t-62 103t-86 60.5 t-96.5 21q-70 0 -123.5 -27t-85 -72.5t-47.5 -100.5t-16 -116z" />
<glyph unicode="&#xf1;" d="M129 0v1024h248v-121q32 48 80.5 81.5t98 47t81.5 18.5t55 5q159 0 245.5 -93.5t86.5 -248.5v-713h-242v575q0 240 -180 240q-73 0 -129 -47q-55 -45 -75.5 -117t-20.5 -207v-444h-248zM254 1196q0 46 9.5 88.5t30 82t60 63.5t92.5 24q40 0 135 -38t121 -38 q28 0 40.5 16.5t21.5 51.5h156q-2 -48 -11.5 -89.5t-29.5 -80t-57 -60.5t-87 -22t-143.5 40t-124.5 40q-51 0 -59 -78h-154z" />
<glyph unicode="&#xf2;" horiz-adv-x="1193" d="M72 516q0 76 19.5 150.5t61.5 145t102 124.5t148 86.5t193 32.5q70 0 140.5 -18t141 -60t124.5 -102.5t87.5 -153.5t34.5 -205q0 -83 -20.5 -162t-63 -149t-103 -122.5t-146.5 -83t-187 -30.5q-108 0 -198 33t-150.5 87.5t-103 126t-61.5 147.5t-19 153zM301 1446h305 l107 -272h-183zM328 522q0 -140 74 -233.5t202 -93.5q127 0 195.5 91t68.5 218q0 63 -17 121t-50 105.5t-87 75.5t-122 28q-113 0 -188.5 -81.5t-75.5 -230.5z" />
<glyph unicode="&#xf3;" horiz-adv-x="1193" d="M72 516q0 76 19.5 150.5t61.5 145t102 124.5t148 86.5t193 32.5q70 0 140.5 -18t141 -60t124.5 -102.5t87.5 -153.5t34.5 -205q0 -83 -20.5 -162t-63 -149t-103 -122.5t-146.5 -83t-187 -30.5q-108 0 -198 33t-150.5 87.5t-103 126t-61.5 147.5t-19 153zM328 522 q0 -140 74 -233.5t202 -93.5q127 0 195.5 91t68.5 218q0 63 -17 121t-50 105.5t-87 75.5t-122 28q-113 0 -188.5 -81.5t-75.5 -230.5zM489 1174l103 272h305l-221 -272h-187z" />
<glyph unicode="&#xf4;" horiz-adv-x="1193" d="M72 516q0 76 19.5 150.5t61.5 145t102 124.5t148 86.5t193 32.5q70 0 140.5 -18t141 -60t124.5 -102.5t87.5 -153.5t34.5 -205q0 -83 -20.5 -162t-63 -149t-103 -122.5t-146.5 -83t-187 -30.5q-108 0 -198 33t-150.5 87.5t-103 126t-61.5 147.5t-19 153zM250 1171 l227 275h242l229 -275h-252l-96 138l-102 -138h-248zM328 522q0 -140 74 -233.5t202 -93.5q127 0 195.5 91t68.5 218q0 63 -17 121t-50 105.5t-87 75.5t-122 28q-113 0 -188.5 -81.5t-75.5 -230.5z" />
<glyph unicode="&#xf5;" horiz-adv-x="1193" d="M72 516q0 76 19.5 150.5t61.5 145t102 124.5t148 86.5t193 32.5q70 0 140.5 -18t141 -60t124.5 -102.5t87.5 -153.5t34.5 -205q0 -83 -20.5 -162t-63 -149t-103 -122.5t-146.5 -83t-187 -30.5q-108 0 -198 33t-150.5 87.5t-103 126t-61.5 147.5t-19 153zM270 1196 q0 46 9.5 88.5t30.5 82t60.5 63.5t92.5 24q40 0 135 -38t121 -38q28 0 40 16.5t21 51.5h156q-2 -48 -11 -89.5t-29 -80t-57 -60.5t-87 -22t-144 40t-125 40q-51 0 -59 -78h-154zM328 522q0 -140 74 -233.5t202 -93.5q127 0 195.5 91t68.5 218q0 63 -17 121t-50 105.5 t-87 75.5t-122 28q-113 0 -188.5 -81.5t-75.5 -230.5z" />
<glyph unicode="&#xf6;" horiz-adv-x="1193" d="M72 516q0 76 19.5 150.5t61.5 145t102 124.5t148 86.5t193 32.5q70 0 140.5 -18t141 -60t124.5 -102.5t87.5 -153.5t34.5 -205q0 -83 -20.5 -162t-63 -149t-103 -122.5t-146.5 -83t-187 -30.5q-108 0 -198 33t-150.5 87.5t-103 126t-61.5 147.5t-19 153zM281 1202v244 h231v-244h-231zM328 522q0 -140 74 -233.5t202 -93.5q127 0 195.5 91t68.5 218q0 63 -17 121t-50 105.5t-87 75.5t-122 28q-113 0 -188.5 -81.5t-75.5 -230.5zM690 1202v244h236v-244h-236z" />
<glyph unicode="&#xf7;" horiz-adv-x="1482" d="M162 526v230h1159v-230h-1159zM616 127v274h248v-274h-248zM616 879v276h250v-276h-250z" />
<glyph unicode="&#xf8;" horiz-adv-x="1193" d="M18 162l115 92q-72 122 -72 264q0 106 35 201q14 39 36 78t64 87.5t94.5 84.5t132.5 61t173 25q70 0 130 -13t105 -37.5t71 -43.5t56 -46l105 84l94 -114l-115 -92q23 -40 36 -67.5t27.5 -88t14.5 -129.5q0 -217 -131 -369q-144 -170 -411 -170q-117 0 -197.5 36 t-163.5 122l-108 -86zM303 524q0 -56 16 -123l459 369q-30 37 -80 60.5t-102 23.5q-130 0 -213 -92q-80 -90 -80 -238zM393 272q82 -100 205 -100q117 0 199 88q82 86 82 234q0 88 -25 147z" />
<glyph unicode="&#xf9;" horiz-adv-x="1193" d="M127 381v643h248v-590q0 -227 200 -227q78 0 128.5 37.5t70.5 77.5q39 76 39 245v457h246v-1024h-246v104q-140 -129 -332 -129q-204 0 -295 136q-37 55 -48 118.5t-11 151.5zM301 1446h305l107 -272h-183z" />
<glyph unicode="&#xfa;" horiz-adv-x="1193" d="M127 381v643h248v-590q0 -227 200 -227q78 0 128.5 37.5t70.5 77.5q39 76 39 245v457h246v-1024h-246v104q-140 -129 -332 -129q-204 0 -295 136q-37 55 -48 118.5t-11 151.5zM492 1174l102 272h305l-221 -272h-186z" />
<glyph unicode="&#xfb;" horiz-adv-x="1193" d="M127 381v643h248v-590q0 -227 200 -227q78 0 128.5 37.5t70.5 77.5q39 76 39 245v457h246v-1024h-246v104q-140 -129 -332 -129q-204 0 -295 136q-37 55 -48 118.5t-11 151.5zM248 1171l227 275h242l229 -275h-252l-96 138l-102 -138h-248z" />
<glyph unicode="&#xfc;" horiz-adv-x="1193" d="M127 381v643h248v-590q0 -227 200 -227q78 0 128.5 37.5t70.5 77.5q39 76 39 245v457h246v-1024h-246v104q-140 -129 -332 -129q-204 0 -295 136q-37 55 -48 118.5t-11 151.5zM274 1202v244h232v-244h-232zM684 1202v244h236v-244h-236z" />
<glyph unicode="&#xfd;" horiz-adv-x="980" d="M25 1024h264l229 -764l193 764h252l-273 -934q-20 -71 -32 -108t-35.5 -100.5t-50 -105.5t-56.5 -67q-44 -36 -93 -48.5t-116 -12.5q-77 0 -145 14v213q25 -4 67 -4q38 0 68 9.5t46.5 20.5t28.5 29.5t15.5 27.5t7.5 22zM385 1174l102 272h306l-222 -272h-186z" />
<glyph unicode="&#xfe;" horiz-adv-x="1193" d="M131 -334v1780h246v-514q56 56 119.5 89.5t156.5 33.5q94 0 173 -33t132.5 -87.5t91 -126.5t55 -149t17.5 -155t-18 -154t-56 -145t-91.5 -121.5t-131 -83.5t-168.5 -31q-94 0 -158 31.5t-122 83.5v-418h-246zM373 504q0 -144 74 -222.5t176 -78.5q46 0 88.5 17t78.5 52 t58 96.5t22 141.5q0 152 -75 230.5t-174 78.5q-47 0 -89.5 -18t-79 -54.5t-58 -99t-21.5 -143.5z" />
<glyph unicode="&#xff;" horiz-adv-x="980" d="M25 1024h264l229 -764l193 764h252l-273 -934q-20 -71 -32 -108t-35.5 -100.5t-50 -105.5t-56.5 -67q-44 -36 -93 -48.5t-116 -12.5q-77 0 -145 14v213q25 -4 67 -4q38 0 68 9.5t46.5 20.5t28.5 29.5t15.5 27.5t7.5 22zM170 1202v244h231v-244h-231zM580 1202v244h235 v-244h-235z" />
<glyph unicode="&#x152;" horiz-adv-x="2260" d="M96 694q0 182 59.5 334t158.5 250t225 151.5t262 53.5q168 0 327 -99v62h1033v-246h-764v-346h665v-233h-665v-377h809v-244h-1078l-2 51q-158 -88 -350 -88q-128 0 -247.5 47t-217 135.5t-156.5 231t-59 317.5zM385 698q0 -95 25 -181t74.5 -157.5t134.5 -114t196 -42.5 q127 0 211 53.5t102 128.5v641q-13 56 -51.5 98t-88.5 63t-95 30.5t-84 9.5q-21 0 -47.5 -3.5t-69.5 -16.5t-82.5 -34.5t-81.5 -62t-72.5 -94t-50.5 -136t-20 -182.5z" />
<glyph unicode="&#x153;" horiz-adv-x="1878" d="M70 502q0 243 142.5 398t367.5 155q210 0 362 -152q101 91 187 121.5t174 30.5q228 0 368.5 -161.5t140.5 -440.5h-735q11 -116 83.5 -190.5t185.5 -74.5q58 0 124 30.5t121 109.5l199 -121q-95 -122 -205.5 -180t-255.5 -58q-76 0 -134 12.5t-102.5 41.5t-73 56 t-69.5 75q-134 -185 -379 -185q-118 0 -213.5 40t-158 111.5t-96 169t-33.5 212.5zM317 510q0 -35 6 -72.5t23.5 -83t45 -80t76.5 -58t112 -23.5q57 0 103 19.5t75 51t48.5 73t27.5 83t8 84.5q0 59 -17 115t-48.5 103t-84 75t-117.5 28q-85 0 -145 -47t-86.5 -116.5 t-26.5 -151.5zM1077 627h451q-47 215 -228 215q-21 0 -42 -3.5t-50.5 -17t-53.5 -35.5t-45.5 -63t-31.5 -96z" />
<glyph unicode="&#x178;" horiz-adv-x="1280" d="M20 1446h308l313 -598l315 598h304l-488 -875v-571h-268v571zM322 1581v252h229v-252h-229zM731 1581v252h234v-252h-234z" />
<glyph unicode="&#x2c6;" horiz-adv-x="555" d="M-72 1171l228 275h241l230 -275h-252l-96 138l-103 -138h-248z" />
<glyph unicode="&#x2dc;" horiz-adv-x="555" d="M-55 1196q0 46 9.5 88.5t30 82t60 63.5t92.5 24q40 0 135 -38t121 -38q28 0 40.5 16.5t21.5 51.5h155q-2 -48 -11 -89.5t-29 -80t-57 -60.5t-87 -22t-143.5 40t-124.5 40q-52 0 -60 -78h-153z" />
<glyph unicode="&#x2000;" horiz-adv-x="986" />
<glyph unicode="&#x2001;" horiz-adv-x="1972" />
<glyph unicode="&#x2002;" horiz-adv-x="986" />
<glyph unicode="&#x2003;" horiz-adv-x="1972" />
<glyph unicode="&#x2004;" horiz-adv-x="657" />
<glyph unicode="&#x2005;" horiz-adv-x="493" />
<glyph unicode="&#x2006;" horiz-adv-x="328" />
<glyph unicode="&#x2007;" horiz-adv-x="328" />
<glyph unicode="&#x2008;" horiz-adv-x="246" />
<glyph unicode="&#x2009;" horiz-adv-x="394" />
<glyph unicode="&#x200a;" horiz-adv-x="109" />
<glyph unicode="&#x2010;" horiz-adv-x="761" d="M84 506v231h592v-231h-592z" />
<glyph unicode="&#x2011;" horiz-adv-x="761" d="M84 506v231h592v-231h-592z" />
<glyph unicode="&#x2012;" horiz-adv-x="761" d="M84 506v231h592v-231h-592z" />
<glyph unicode="&#x2013;" horiz-adv-x="1249" d="M84 506v231h1081v-231h-1081z" />
<glyph unicode="&#x2014;" horiz-adv-x="1828" d="M84 506v231h1661v-231h-1661z" />
<glyph unicode="&#x2018;" horiz-adv-x="425" d="M74 887v336q0 82 66 146.5t190 82.5v-121q-64 -7 -87.5 -50t-23.5 -114h127v-280h-272z" />
<glyph unicode="&#x2019;" horiz-adv-x="425" d="M80 1165v281h268v-305q0 -112 -70 -179t-184 -83v114q60 27 84.5 53.5t24.5 86.5v32h-123z" />
<glyph unicode="&#x201a;" horiz-adv-x="425" d="M76 0v281h272v-318q0 -109 -66.5 -165.5t-189.5 -82.5v119q64 7 87.5 51t23.5 115h-127z" />
<glyph unicode="&#x201c;" horiz-adv-x="768" d="M76 893v297q0 123 60 185.5t188 88.5v-114q-32 -13 -51 -25t-30.5 -23t-16.5 -32t-6 -38.5t-1 -55.5h123v-283h-266zM426 893v311q0 69 18 113t68 82q67 50 166 57v-108q-75 -29 -94 -58t-19 -114h127v-283h-266z" />
<glyph unicode="&#x201d;" horiz-adv-x="768" d="M76 1161v285h266v-293q0 -126 -60.5 -191.5t-189.5 -89.5v115q31 10 51 22t31.5 24.5t17 34.5t6.5 40t1 53h-123zM426 1161v285h266v-293q0 -126 -60.5 -191.5t-189.5 -89.5v115q31 10 51 22t31.5 24.5t17 34.5t6.5 40t1 53h-123z" />
<glyph unicode="&#x201e;" horiz-adv-x="768" d="M76 0v285h266v-293q0 -126 -60.5 -191.5t-189.5 -89.5v115q31 10 51 22t31.5 24.5t17 34.5t6.5 40t1 53h-123zM426 0v285h266v-293q0 -126 -60.5 -191.5t-189.5 -89.5v115q31 10 51 22t31.5 24.5t17 34.5t6.5 40t1 53h-123z" />
<glyph unicode="&#x2022;" horiz-adv-x="681" d="M96 477v488h490v-488h-490z" />
<glyph unicode="&#x2026;" horiz-adv-x="2048" d="M225 0v227h230v-227h-230zM909 0v227h230v-227h-230zM1591 0v227h232v-227h-232z" />
<glyph unicode="&#x202f;" horiz-adv-x="394" />
<glyph unicode="&#x2039;" horiz-adv-x="512" d="M115 500v288l291 234v-234l-177 -145l177 -143v-230z" />
<glyph unicode="&#x203a;" horiz-adv-x="512" d="M102 264v232l177 147l-177 141v232l291 -232v-288z" />
<glyph unicode="&#x205f;" horiz-adv-x="493" />
<glyph unicode="&#x20ac;" horiz-adv-x="1425" d="M63 516l56 148h88l4 81h-148l56 148h108q58 252 233 391t433 139q144 0 252 -33t213 -118l-94 -273q-74 96 -157 140.5t-200 44.5q-145 0 -246 -76t-139 -215h707l-55 -148h-672q-2 -12 -2 -38q0 -29 2 -43h647l-55 -148h-574q42 -150 142 -229.5t253 -79.5 q114 0 219.5 47.5t180.5 132.5v-305q-183 -125 -430 -125q-271 0 -438.5 145t-223.5 414h-160z" />
<glyph unicode="&#x2122;" horiz-adv-x="1406" d="M16 1327v119h521v-119h-181v-561h-147v561h-193zM621 766v680h219l116 -477l113 477h217v-680h-135l2 539l-139 -539h-119l-143 547q8 -508 8 -547h-139z" />
<glyph unicode="&#x25fc;" horiz-adv-x="1024" d="M0 0v1024h1024v-1024h-1024z" />
</font>
</defs>
</svg>
