<?xml version="1.0" standalone="no"?>
<!DOCTYPE svg PUBLIC "-//W3C//DTD SVG 1.1//EN" "http://www.w3.org/Graphics/SVG/1.1/DTD/svg11.dtd" >
<svg xmlns="http://www.w3.org/2000/svg">
<metadata></metadata>
<defs>
<font id="akzidenz-grotesk_stdLtCn" horiz-adv-x="641" >
<font-face units-per-em="2048" ascent="1536" descent="-512" />
<missing-glyph horiz-adv-x="382" />
<glyph unicode="&#xfb01;" horiz-adv-x="681" d="M35 948v82h123v250q0 65 44.5 115.5t137.5 50.5q19 0 51 -4v-80q-1 0 -12 1t-19 1q-118 0 -118 -121v-213h127v-82h-131v-948h-86v948h-117zM487 0v1030h86v-1030h-86zM487 1151v160h88v-160h-88z" />
<glyph unicode="&#xfb02;" horiz-adv-x="681" d="M35 948v82h123v250q0 65 44.5 115.5t137.5 50.5q19 0 51 -4v-80q-1 0 -12 1t-19 1q-118 0 -118 -121v-213h127v-82h-131v-948h-86v948h-117zM489 0v1446h86v-1446h-86z" />
<glyph horiz-adv-x="0" />
<glyph horiz-adv-x="682" />
<glyph unicode=" "  horiz-adv-x="382" />
<glyph unicode="&#x09;" horiz-adv-x="382" />
<glyph unicode="&#xa0;" horiz-adv-x="382" />
<glyph unicode="!" horiz-adv-x="382" d="M188 0v184h93v-184h-93zM188 676v770h99v-784l-23 -279h-57z" />
<glyph unicode="&#x22;" horiz-adv-x="557" d="M80 1516h119l-37 -590h-43zM358 1516h119l-39 -590h-43z" />
<glyph unicode="#" horiz-adv-x="1052" d="M41 539v82h283l20 229h-270v84h278l43 512h90l-43 -512h203l43 512h86l-43 -512h279v-84h-287l-18 -229h280v-82h-289l-43 -539h-88l47 539h-204l-46 -539h-90l45 539h-276zM416 621h202l19 229h-203z" />
<glyph unicode="$" horiz-adv-x="733" d="M61 369v90h91v-78q0 -154 50.5 -222.5t164.5 -68.5q103 0 152.5 60t49.5 184q0 104 -34.5 168.5t-147.5 173.5q-27 27 -72.5 70t-63 61t-48 50t-41 50t-27 48t-21.5 57.5t-9.5 63.5t-4.5 81q0 269 232 287v102h63v-102q59 -8 98.5 -25t71 -52t46 -96t14.5 -151v-43h-93 v43q0 131 -38.5 183.5t-131.5 52.5q-89 0 -127 -48t-38 -157q0 -29 2 -53.5t9.5 -48t13 -40t21 -38.5t24.5 -34.5t33 -36.5t36.5 -36t44.5 -42t49 -46q140 -134 187 -219t47 -213q0 -160 -66 -244t-201 -98v-147h-63v147q-137 12 -205 98.5t-68 268.5z" />
<glyph unicode="%" horiz-adv-x="1193" d="M41 752v493q0 34 6.5 63.5t24.5 64.5t60 56t104 21q96 0 139 -51.5t43 -157.5v-491q0 -218 -187 -218q-101 0 -145.5 60t-44.5 160zM119 760q0 -71 24 -111.5t88 -40.5q111 0 111 142v477q0 78 -22.5 110.5t-86.5 32.5q-56 0 -85 -29t-29 -100v-481zM186 -121l750 1731 l53 -25l-751 -1728zM766 209v493q0 34 6.5 63.5t24.5 64.5t60 56t104 21q97 0 139.5 -49.5t42.5 -155.5v-495q0 -217 -187 -217q-101 0 -145.5 59.5t-44.5 159.5zM844 217q0 -70 24 -110.5t88 -40.5q111 0 111 141v487q0 72 -25.5 102.5t-83.5 30.5q-56 0 -85 -27.5 t-29 -94.5v-488z" />
<glyph unicode="&#x26;" horiz-adv-x="894" d="M66 270q0 61 14 115t46.5 108.5t59 89.5t76.5 95q-1 3 -9.5 27t-15 44t-16 54t-16 64.5t-11 68.5t-4.5 72q0 27 3.5 54t16.5 62.5t33 61.5t57.5 44.5t86.5 18.5q81 0 127.5 -48t46.5 -128q0 -75 -41.5 -158.5t-157.5 -244.5q105 -242 254 -477q27 39 39.5 63.5t28.5 79.5 t22.5 143.5t6.5 220.5h90q0 -81 -2 -132t-9.5 -124t-26.5 -135.5t-50 -115.5q-8 -15 -43 -66q38 -28 69 -38.5t74 -10.5l43 2v-84q-106 0 -153 13t-99 52q-39 -39 -104 -59t-133 -20q-132 0 -209 67q-94 84 -94 221zM158 281q0 -106 63.5 -160.5t157.5 -54.5q104 0 172 59 q-117 169 -252 457q-141 -173 -141 -301zM276 1008q0 -49 13 -122t39 -120q46 65 69 100.5t49.5 96.5t26.5 106q0 42 -24 72t-66 30q-48 0 -77.5 -41.5t-29.5 -121.5z" />
<glyph unicode="'" horiz-adv-x="280" d="M80 1516h119l-37 -590h-43z" />
<glyph unicode="(" horiz-adv-x="468" d="M59 596q0 186 59 379t165 342q39 53 106 131v-115q-43 -62 -65 -98q-80 -132 -126 -311.5t-46 -339.5q0 -202 62 -403.5t179 -348.5v-119q-85 93 -117 140q-101 148 -159 352t-58 391z" />
<glyph unicode=")" horiz-adv-x="468" d="M76 1331v119q156 -154 245 -396t89 -485q0 -180 -55.5 -369t-155.5 -333q-23 -33 -121 -150v115q114 144 176.5 348t62.5 400q0 205 -63.5 407t-177.5 344z" />
<glyph unicode="*" horiz-adv-x="624" d="M59 1231l25 78l186 -52v197h82v-201l191 66l26 -74l-192 -71l117 -164l-64 -49l-121 161l-106 -161l-66 49l109 166z" />
<glyph unicode="+" horiz-adv-x="1142" d="M172 565v84h354v377h92v-377h353v-84h-353v-377h-92v377h-354z" />
<glyph unicode="," horiz-adv-x="299" d="M102 -139q33 18 42.5 48.5t9.5 78.5v12h-50v186h93v-186q0 -73 -19 -116.5t-76 -67.5v45z" />
<glyph unicode="-" horiz-adv-x="507" d="M72 555v86h362v-86h-362z" />
<glyph unicode="." horiz-adv-x="299" d="M106 0v184h91v-184h-91z" />
<glyph unicode="/" d="M70 0l409 1446h92l-407 -1446h-94z" />
<glyph unicode="0" horiz-adv-x="724" d="M74 303v842q0 65 15.5 118.5t49.5 97t94 67.5t142 24q128 0 204 -73.5t76 -233.5v-838q0 -149 -81 -228t-212 -79q-128 0 -208 79t-80 224zM168 301q0 -91 51.5 -151t142.5 -60q19 0 40 3.5t51 17t52.5 35.5t39 64t16.5 97v840q0 104 -45 158.5t-147 54.5 q-108 0 -154.5 -57t-46.5 -164v-838z" />
<glyph unicode="1" horiz-adv-x="724" d="M102 1155v80q62 9 111 35t76 59t41 59.5t20 49.5h92v-1438h-102v1260q-49 -41 -99.5 -65.5t-75.5 -30t-63 -9.5z" />
<glyph unicode="2" horiz-adv-x="724" d="M84 0v109q28 93 143 260q23 33 61 87.5t57.5 82.5t49 74t44.5 76t34 74t27.5 82.5t15 86.5t6.5 100v84q0 246 -160 246q-37 0 -65 -10.5t-45 -32.5t-28 -45.5t-15.5 -60.5t-6 -65t-1.5 -71v-98h-90v137q0 36 1.5 64.5t7.5 64.5t16.5 63t29 54.5t44.5 45.5t65 29t87 11 q69 0 120 -26t78.5 -70.5t40.5 -93.5t13 -103v-121q0 -96 -13 -169.5t-50 -152.5t-77 -142t-120 -177q-5 -7 -31 -42.5t-32.5 -45t-27.5 -39t-29.5 -44.5t-22.5 -40.5t-23.5 -48.5t-17.5 -47h455v-86h-541z" />
<glyph unicode="3" horiz-adv-x="724" d="M72 369v71h90v-47q0 -48 2 -81.5t8 -74.5t19.5 -68t34.5 -51t55 -36t79 -12q91 0 142 64.5t51 158.5v153q0 68 -14.5 116.5t-38.5 78.5t-65.5 48.5t-85 26t-107.5 11.5v94h8q67 0 124.5 21t97.5 70.5t40 119.5v133q0 44 -6 76t-22.5 60.5t-50 43.5t-83.5 15 q-84 0 -116.5 -49t-32.5 -133v-158h-90v162q0 77 19 130.5t55 81.5t77.5 40t95.5 12q246 0 246 -268v-138q0 -49 -13 -89.5t-28 -64.5t-44.5 -46.5t-44 -30t-46.5 -20.5l-31 -13q92 -23 131 -47q115 -70 115 -266v-156q0 -87 -23.5 -152t-64.5 -101t-90.5 -53t-108.5 -17 q-61 0 -108.5 16t-77.5 46.5t-50.5 66t-30 82t-13.5 86.5t-4 88z" />
<glyph unicode="4" horiz-adv-x="724" d="M39 461v94l373 881h127v-889h172v-86h-172v-461h-95v461h-405zM131 547h313v756z" />
<glyph unicode="5" horiz-adv-x="724" d="M94 301v154h90v-113q0 -37 0.5 -57.5t3.5 -52t9 -50t18 -40.5t29 -34t43 -20t59 -8q49 0 83 14t53 36t29 64t12.5 81.5t2.5 105.5v299q0 98 -33.5 153.5t-123.5 55.5q-28 0 -54 -7t-54 -24.5t-45 -55t-17 -91.5v-21h-76v750h475v-88h-383v-430q82 55 164 55 q239 0 239 -326v-272q0 -36 -0.5 -57.5t-3 -58t-7 -59t-13.5 -54.5t-22 -52t-33 -42t-45 -34.5t-60.5 -21t-77.5 -8.5q-65 0 -113.5 17.5t-76.5 45.5t-44.5 70.5t-22 83t-5.5 92.5z" />
<glyph unicode="6" horiz-adv-x="724" d="M98 287v868q0 43 6.5 81.5t26 80t51 71t86 49t125.5 19.5q147 0 204.5 -79.5t57.5 -233.5v-82h-92v20q0 39 -1 64t-4.5 58.5t-10 54t-19.5 43.5t-31 35.5t-45.5 21t-62.5 8.5q-59 0 -100.5 -21.5t-61 -56.5t-27 -67t-7.5 -66v-364q37 40 99.5 64t117.5 24 q120 0 181.5 -75.5t61.5 -201.5v-344q0 -64 -20.5 -113.5t-50 -77.5t-69.5 -46t-73 -23.5t-65 -5.5q-132 0 -204.5 75.5t-72.5 219.5zM190 340q0 -38 2 -66t12.5 -66.5t29 -63t54 -42.5t85.5 -18q95 0 141.5 58.5t46.5 138.5v321q0 87 -40.5 136.5t-117.5 49.5 q-101 0 -157 -64t-56 -163v-221z" />
<glyph unicode="7" horiz-adv-x="724" d="M96 1350v90h555v-90q-149 -335 -228 -621.5t-79 -603.5v-125h-100v86q0 289 72.5 591.5t238.5 672.5h-459z" />
<glyph unicode="8" horiz-adv-x="724" d="M84 268v285q0 54 12 97.5t28 69t41 45.5t41 28t38 16q-45 18 -75 42t-43 52t-17.5 51.5t-4.5 53.5v213q0 32 4.5 60.5t21 63t44 58.5t77 40.5t116.5 16.5q260 0 260 -252v-182q0 -101 -36.5 -146t-113.5 -71q94 -34 131 -96.5t37 -186.5v-264q0 -136 -74 -206t-204 -70 q-132 0 -207.5 74t-75.5 208zM178 305q0 -123 49 -177t140 -54q184 0 184 215v254q0 219 -182 219q-191 0 -191 -211v-246zM199 1016q0 -82 46 -122t120 -40q76 0 121.5 45t45.5 135v148q0 97 -36 144.5t-138 47.5q-88 0 -123.5 -43t-35.5 -117v-198z" />
<glyph unicode="9" horiz-adv-x="724" d="M68 272v117h94v-113q0 -198 176 -198q100 0 149.5 54t49.5 144v386q-35 -36 -93 -62.5t-125 -26.5q-116 0 -182.5 66.5t-66.5 196.5v315q0 62 12.5 112.5t42 97t88 73t141.5 26.5q279 0 279 -301v-858q0 -89 -24 -153t-67 -98t-92.5 -49t-109.5 -15q-140 0 -206 75 t-66 211zM166 831q0 -75 40.5 -121t110.5 -46q102 0 162 62t60 189v230q0 48 -7 84t-26.5 69.5t-59 51.5t-98.5 18q-76 0 -129 -45t-53 -135v-357z" />
<glyph unicode=":" horiz-adv-x="382" d="M188 0v184h91v-184h-91zM188 745v187h91v-187h-91z" />
<glyph unicode=";" horiz-adv-x="382" d="M186 0v186h93v-186q0 -72 -18 -113.5t-75 -70.5v45q34 24 43 52t9 75v12h-52zM186 745v187h95v-187h-95z" />
<glyph unicode="&#x3c;" horiz-adv-x="1144" d="M182 553v92l731 399v-100l-639 -340l639 -342v-106z" />
<glyph unicode="=" horiz-adv-x="1144" d="M174 416v86h797v-86h-797zM174 711v86h797v-86h-797z" />
<glyph unicode="&#x3e;" horiz-adv-x="1144" d="M231 156v98l639 342l-639 342v104l732 -395v-92z" />
<glyph unicode="?" horiz-adv-x="724" d="M143 987v125q0 56 4 98.5t19 94t41 85.5t74.5 57t115.5 23q57 0 101 -17t71 -49t44.5 -67t25 -83t10 -84t2.5 -83q0 -120 -17 -188t-71 -147q-7 -10 -38 -52.5t-42.5 -61.5t-25 -54.5t-13.5 -67.5v-160h-96v179q0 74 45 139l94 137q33 47 50.5 98.5t17.5 130.5v60 q0 135 -36.5 209.5t-125.5 74.5q-46 0 -78 -23t-47.5 -61.5t-21.5 -76.5t-6 -80v-156h-97zM348 0v184h98v-184h-98z" />
<glyph unicode="@" horiz-adv-x="1798" d="M117 475q0 201 75 383.5t202 314t302.5 209.5t368.5 78q278 0 441 -160t163 -430q0 -182 -69.5 -350.5t-177.5 -269t-218 -100.5q-71 0 -115.5 46t-44.5 119q0 14 3 35q-130 -196 -306 -196q-120 0 -190 85.5t-70 233.5q0 150 58.5 284.5t156 215t205.5 80.5 q54 0 98.5 -21t73 -55t45.5 -66t27 -65l37 160h94l-102 -465q-25 -117 -25 -189q0 -114 92 -114q54 0 109 49q110 98 174.5 256.5t64.5 330.5q0 235 -144 373.5t-388 138.5q-230 0 -427 -122.5t-312 -331.5t-115 -453q0 -292 191.5 -473.5t500.5 -181.5q256 0 487 135 q69 41 109.5 71.5t105.5 92.5l48 -53q-320 -320 -748 -320q-228 0 -405.5 91.5t-276 256.5t-98.5 377zM580 471q0 -109 52 -174.5t140 -65.5q81 0 148 51t106.5 129t60.5 162t21 158q0 107 -55.5 176.5t-141.5 69.5t-163 -70t-122.5 -187t-45.5 -249z" />
<glyph unicode="A" horiz-adv-x="768" d="M49 0l264 1454h140l262 -1454h-107l-73 440h-304l-75 -440h-107zM248 535h268l-133 786z" />
<glyph unicode="B" horiz-adv-x="768" d="M121 0v1446h295q113 0 166 -62q49 -56 49 -165v-234q0 -48 -13 -84.5t-29.5 -56t-43.5 -33.5t-43.5 -18.5t-40.5 -8.5q98 -9 153 -55q31 -26 47 -65t18.5 -69t2.5 -79v-256q0 -118 -61 -189t-199 -71h-301zM221 823h111q54 0 93.5 14.5t59.5 34t31 48t13.5 48t2.5 42.5 v207q0 40 -11.5 68t-26.5 42.5t-43 22t-48.5 9t-54.5 1.5h-127v-537zM223 88h170q62 0 99.5 12t57 42t26 68t6.5 103v211q0 56 -15.5 96t-38.5 62t-59.5 34.5t-68 15.5t-74.5 3h-103v-647z" />
<glyph unicode="C" horiz-adv-x="768" d="M106 295v876q0 77 25 135t67 90.5t91 48t104 15.5q123 0 199 -68.5t76 -199.5v-213h-101v125q0 50 -2 82.5t-12 70.5t-27.5 59.5t-50.5 36.5t-80 15q-50 0 -87 -18t-56 -42t-30.5 -57t-14 -55t-2.5 -43v-782q0 -157 43.5 -228t157.5 -71q92 0 134 53.5t42 136.5v236h102 v-224q0 -44 -5.5 -81t-24 -79t-49 -70.5t-86 -47.5t-130.5 -19q-70 0 -123 21.5t-82.5 54t-48 77.5t-24 83.5t-5.5 81.5z" />
<glyph unicode="D" horiz-adv-x="811" d="M123 0v1446h125q79 0 132 -6t116 -34t106 -79q58 -69 78 -174t20 -299v-408q0 -37 -3 -71.5t-12.5 -81t-25.5 -85.5t-46 -78.5t-69.5 -67t-98.5 -45t-132 -17.5h-190zM223 90h82q159 0 228 97t69 315v354q0 271 -51 367q-71 131 -252 131h-76v-1264z" />
<glyph unicode="E" horiz-adv-x="681" d="M121 0v1446h512v-90h-414v-557h340v-88h-340v-621h412v-90h-510z" />
<glyph unicode="F" d="M121 0v1446h510v-90h-412v-557h363v-88h-363v-711h-98z" />
<glyph unicode="G" horiz-adv-x="811" d="M113 373v770q0 157 70 238t231 81q75 0 130.5 -22t86.5 -60.5t46 -84t15 -97.5v-217h-96v170q0 49 -7 85t-26 70t-58 52t-97 18q-197 0 -197 -235v-740q0 -100 5 -149t24 -86q16 -35 55 -66.5t102 -31.5q60 0 109 41.5t72.5 95.5t23.5 104v262h-213v88h313v-659h-75v115 q-31 -50 -92 -92.5t-150 -42.5q-67 0 -125 28t-92 82q-33 52 -44 109.5t-11 173.5z" />
<glyph unicode="H" horiz-adv-x="811" d="M121 0v1446h98v-643h373v643h100v-1446h-100v715h-373v-715h-98z" />
<glyph unicode="I" horiz-adv-x="342" d="M119 0v1446h104v-1446h-104z" />
<glyph unicode="J" horiz-adv-x="681" d="M86 240v217h98v-226q0 -66 36.5 -113.5t105.5 -47.5q34 0 60 11.5t41 28.5t24.5 40t12.5 43t3 40v1213h98v-1194q0 -75 -20.5 -130t-56 -85t-77 -43.5t-89.5 -13.5q-60 0 -106 20.5t-69.5 49.5t-38.5 68t-18.5 67t-3.5 55z" />
<glyph unicode="K" horiz-adv-x="724" d="M119 0v1446h100v-709l361 709h112l-307 -576l311 -870h-108l-264 750l-107 -201v-549h-98z" />
<glyph unicode="L" d="M119 0v1446h100v-1356h377v-90h-477z" />
<glyph unicode="M" horiz-adv-x="1024" d="M111 0l12 1446h147l238 -1235l242 1235h147l14 -1446h-96q0 17 -1 579t-1 758l-256 -1337h-92l-256 1337v-1337h-98z" />
<glyph unicode="N" horiz-adv-x="811" d="M113 0v1446h147l346 -1391q-14 1311 -14 1391h98v-1446h-153l-336 1366q8 -1219 8 -1366h-96z" />
<glyph unicode="O" horiz-adv-x="811" d="M111 299v846q0 142 72.5 229.5t219.5 87.5q78 0 134.5 -22.5t86.5 -55.5t47 -84.5t21 -93t4 -98.5v-825q0 -43 -7.5 -82t-28 -80t-52.5 -71t-85.5 -49t-123.5 -19q-154 0 -221 82t-67 235zM209 303q0 -231 197 -231q48 0 84 16t56.5 40.5t33 59t16.5 65.5t4 66v758 q0 163 -50.5 229t-146.5 66q-52 0 -90.5 -18.5t-60.5 -50.5t-32.5 -69.5t-10.5 -80.5v-850z" />
<glyph unicode="P" horiz-adv-x="768" d="M119 0v1446h256q76 0 130.5 -10.5t98.5 -46.5q37 -30 55 -77t20.5 -82.5t2.5 -105.5v-163q0 -72 -10 -118t-47 -91q-78 -93 -258 -93h-148v-659h-100zM217 743h164q106 0 156 52q47 47 47 145v145q0 47 -1.5 77t-5.5 62.5t-13 51.5t-23.5 37.5t-36.5 28t-52 15t-71 5.5 h-164v-619z" />
<glyph unicode="Q" horiz-adv-x="811" d="M111 383v739q0 344 301 344q140 0 212 -81t72 -238v-795q0 -108 -24 -182.5t-103 -134.5l189 -172l-60 -64l-219 195q-51 -10 -82 -10q-57 0 -102 14t-74.5 35.5t-51 56t-32.5 66t-17 76.5t-7.5 76t-1.5 75zM209 399q0 -183 44.5 -254t145.5 -71q54 0 94 22t62 60.5 t32.5 85t10.5 102.5v805q0 106 -49 165.5t-143 59.5q-53 0 -91.5 -19.5t-58.5 -45t-31 -63t-13.5 -62t-2.5 -51.5v-734z" />
<glyph unicode="R" horiz-adv-x="768" d="M121 0v1446h289q276 0 276 -252v-242q0 -198 -203 -239l267 -713h-107l-264 705h-158v-705h-100zM221 791h185q94 0 134 41.5t40 107.5v227q0 97 -34.5 145t-125.5 48h-199v-569z" />
<glyph unicode="S" horiz-adv-x="768" d="M86 270v203h100v-115q0 -96 7 -140.5t36 -82.5q55 -69 168 -69q102 0 144.5 61.5t42.5 175.5q0 79 -19.5 136t-61.5 111.5t-130 141.5q-52 52 -76 77t-60 66.5t-52 70t-33.5 68.5t-24 81.5t-6.5 91.5q0 31 1.5 56t8 59.5t17.5 61t31.5 54.5t49 46.5t71.5 30t97 11.5 t97 -12t70.5 -29.5t47.5 -47t29.5 -55t15 -64t6.5 -63t1 -62.5v-105h-99v129q0 37 -1 58t-10 57t-25.5 56t-50.5 36t-83 16q-92 0 -133 -54t-41 -163q0 -75 17 -126t67.5 -117t161.5 -179q54 -55 81.5 -85.5t58.5 -72.5t44.5 -77t23 -81t9.5 -103q0 -35 -1.5 -62.5t-8.5 -65 t-19 -66t-34 -58.5t-52.5 -49t-76.5 -31.5t-103 -12.5q-135 0 -219 72.5t-84 220.5z" />
<glyph unicode="T" d="M14 1356v90h611v-90h-256v-1356h-103v1356h-252z" />
<glyph unicode="U" horiz-adv-x="811" d="M117 287v1159h98v-1120q0 -46 3 -78.5t14.5 -68.5t31.5 -58t56.5 -36.5t87.5 -14.5q106 0 145 61t39 180v1135h100v-1159q0 -163 -79.5 -237.5t-211.5 -74.5q-59 0 -107 15.5t-89.5 50t-64.5 97t-23 149.5z" />
<glyph unicode="V" horiz-adv-x="724" d="M55 1446h105l194 -1233l211 1233h103l-262 -1446h-105z" />
<glyph unicode="W" horiz-adv-x="1150" d="M43 1446h102l195 -1229l186 1229h107l188 -1229l189 1229h100l-236 -1446h-108l-186 1243l-187 -1243h-104z" />
<glyph unicode="X" horiz-adv-x="724" d="M49 0l262 797l-202 649h104l156 -549l168 549h104l-219 -651l254 -795h-105l-209 686l-210 -686h-103z" />
<glyph unicode="Y" horiz-adv-x="724" d="M29 1446h106l232 -680l229 680h111l-295 -807v-639h-99v639z" />
<glyph unicode="Z" horiz-adv-x="724" d="M55 0v66l480 1292h-394v88h510v-68l-483 -1288h481v-90h-594z" />
<glyph unicode="[" horiz-adv-x="468" d="M109 -289v1735h290v-74h-202v-1583h202v-78h-290z" />
<glyph unicode="\" d="M70 1446h90l415 -1446h-96z" />
<glyph unicode="]" horiz-adv-x="468" d="M66 1372v74h294v-1735h-288v78h200v1583h-206z" />
<glyph unicode="^" horiz-adv-x="1144" d="M154 731l368 715h96l371 -715h-104l-316 623l-309 -623h-106z" />
<glyph unicode="_" horiz-adv-x="1024" d="M-20 -317h1064v-89h-1064v89z" />
<glyph unicode="`" horiz-adv-x="468" d="M45 1389h199l178 -224h-68z" />
<glyph unicode="a" d="M57 242q0 70 21 125.5t53.5 89.5t77.5 64.5t86.5 50t87.5 45.5t74 51v141q0 68 -27.5 106.5t-99.5 38.5q-79 0 -110.5 -42.5t-31.5 -145.5v-53h-88v55q0 146 57 207t177 61q107 0 159 -54t52 -153v-710q0 -24 15 -30.5t46 -6.5v-82h-18q-62 1 -90 20t-39 60 q-99 -80 -201 -80q-101 0 -151 69t-50 173zM145 240q0 -20 3.5 -40t15.5 -50t42 -49t75 -19q55 0 94.5 24.5t83.5 71.5v393q-30 -21 -96 -57t-74 -41q-74 -43 -109 -97t-35 -136z" />
<glyph unicode="b" horiz-adv-x="681" d="M106 0v1446h87v-504q73 100 190 100q199 0 199 -264v-540q0 -39 -11 -78.5t-34.5 -78t-68 -63t-103.5 -24.5q-117 0 -166 92v-86h-93zM195 276q0 -59 19 -102t47 -63.5t52.5 -29.5t44.5 -9q69 0 103.5 54.5t34.5 141.5v512q0 16 -1.5 32t-9 45t-21 50t-41 37.5 t-65.5 16.5q-73 0 -118 -51t-45 -136v-498z" />
<glyph unicode="c" d="M82 254v516q0 260 237 260q121 0 178.5 -71.5t57.5 -200.5v-94h-86v81q0 209 -147 209q-47 0 -79.5 -18.5t-47 -49.5t-20 -60t-5.5 -62v-455q0 -38 1.5 -63.5t10.5 -61t25.5 -56.5t48 -36.5t76.5 -15.5q143 0 143 168v149h90v-133q0 -129 -58 -197.5t-194 -68.5 q-52 0 -92.5 15t-66 40t-42.5 59.5t-23.5 70t-6.5 75.5z" />
<glyph unicode="d" horiz-adv-x="681" d="M98 236v546q0 124 60.5 186t146.5 62q26 0 50.5 -6t40 -12.5t33.5 -20t24 -20t20 -21.5l14 -16v512h86v-1446h-81v109q-9 -17 -21.5 -33.5t-35 -37.5t-57 -33.5t-75.5 -12.5q-84 0 -144.5 59t-60.5 185zM184 252q0 -23 2.5 -43.5t11 -47t23.5 -45.5t42 -32.5t63 -13.5 q63 0 106.5 43.5t54.5 105.5v547q-11 84 -50.5 133t-110.5 49q-67 0 -104.5 -49.5t-37.5 -112.5v-534z" />
<glyph unicode="e" d="M88 238v553q0 50 12 91.5t38 77.5t73 56t111 20q237 0 237 -266v-264h-385v-254q0 -21 2 -40.5t11 -45t24 -44t44 -31.5t67 -13q41 0 70.5 13t44.5 31t23.5 48.5t10.5 54.5t2 60v73h86v-129q0 -43 -12.5 -82.5t-39 -73.5t-74 -54.5t-111.5 -20.5q-104 0 -169 59.5 t-65 180.5zM174 580h297v204q0 85 -41 129.5t-106 44.5q-74 0 -112 -49.5t-38 -132.5v-196z" />
<glyph unicode="f" horiz-adv-x="382" d="M35 948v82h123v250q0 65 44.5 115.5t137.5 50.5q19 0 51 -4v-80q-1 0 -12 1t-19 1q-118 0 -118 -121v-213h127v-82h-131v-948h-86v948h-117z" />
<glyph unicode="g" horiz-adv-x="681" d="M94 -104h88q0 -2 1 -15.5t4.5 -30t9.5 -30.5q32 -60 127 -60q13 0 28.5 2t41 11.5t45 24.5t34 45.5t14.5 70.5v178l-14.5 -14.5t-21 -19.5t-25.5 -19t-33 -19t-39 -12.5t-47 -5.5q-104 0 -153.5 67t-49.5 175v563q0 66 17.5 113.5t48.5 72.5t66.5 36t78.5 11 q107 0 172 -94v84h88v-1104q0 -122 -72 -186t-181 -64q-64 0 -122.5 26t-82.5 79q-18 37 -23 115zM190 262q0 -176 138 -176q52 0 98.5 40t60.5 114v577q-11 61 -52 102.5t-101 41.5q-144 0 -144 -187v-512z" />
<glyph unicode="h" horiz-adv-x="681" d="M111 0v1446h88v-498q75 94 186 94q33 0 65 -9.5t64 -31t52 -65.5t20 -105v-831h-88v770q0 31 -2.5 55t-10.5 50t-22.5 42.5t-40 27.5t-60.5 11q-68 0 -111 -42t-52 -93v-821h-88z" />
<glyph unicode="i" horiz-adv-x="299" d="M104 0v1030h86v-1030h-86zM104 1151v160h89v-160h-89z" />
<glyph unicode="j" horiz-adv-x="342" d="M14 -246q42 10 70 32t39.5 53t15.5 57t4 61v1073h86v-1116q0 -208 -215 -248v88zM143 1149v160h86v-160h-86z" />
<glyph unicode="k" d="M106 0v1446h87v-899l296 483h101l-240 -393l264 -637h-96l-225 543l-98 -160v-383h-89z" />
<glyph unicode="l" horiz-adv-x="299" d="M106 0v1446h87v-1446h-87z" />
<glyph unicode="m" horiz-adv-x="1067" d="M109 0v1030h88v-86q29 37 79 67.5t113 30.5q117 0 176 -122q13 18 19 26.5t27.5 30.5t41 34t52 22.5t67.5 10.5q80 0 136.5 -56t56.5 -171v-817h-88v780q0 91 -25.5 136t-103.5 45q-62 0 -104.5 -36t-63.5 -91v-834h-88v817q0 68 -35.5 107t-96.5 39q-62 0 -105.5 -36.5 t-59.5 -76.5v-850h-86z" />
<glyph unicode="n" horiz-adv-x="681" d="M113 0v1030h86v-98q68 110 190 110q34 0 66 -10t62.5 -32.5t48.5 -64.5t18 -99v-836h-86v811q0 156 -127 156q-116 0 -172 -129v-838h-86z" />
<glyph unicode="o" d="M80 219v569q0 106 60.5 177t187.5 71q233 0 233 -250v-516q0 -140 -68 -207t-176 -67t-172.5 60t-64.5 163zM168 246q0 -81 39 -123.5t110 -42.5q38 0 67 12t45.5 30t26.5 43t13.5 47t3.5 46v516q0 176 -145 176q-49 0 -82.5 -16t-49.5 -45.5t-22 -61t-6 -73.5v-508z" />
<glyph unicode="p" horiz-adv-x="681" d="M111 -334v1364h88v-90q35 52 87.5 76t102.5 24q195 0 195 -274v-535q0 -103 -57 -170t-152 -67q-57 0 -106.5 27.5t-69.5 62.5v-418h-88zM199 193q13 -53 58.5 -85t100.5 -32q46 0 75.5 18t42 51.5t16.5 62t4 68.5v529q0 66 -35 111t-99 45q-66 0 -110 -43t-53 -91v-634z " />
<glyph unicode="q" horiz-adv-x="681" d="M100 211v582q0 66 20 120.5t70 91.5t123 37q54 0 101 -25t71 -71v84h84v-1364h-86v428q-61 -100 -186 -100q-95 0 -146 64.5t-51 152.5zM186 260q0 -90 35 -139t101 -49q71 0 117 57.5t46 126.5v489q0 98 -46.5 157t-112.5 59q-69 0 -104.5 -54t-35.5 -135v-512z" />
<glyph unicode="r" horiz-adv-x="425" d="M109 0v1030h84v-180q51 125 215 207v-117q-57 -17 -80 -31q-87 -51 -133 -182v-727h-86z" />
<glyph unicode="s" horiz-adv-x="598" d="M57 285v77h86v-90q0 -28 1 -45.5t9.5 -48.5t24 -49.5t47.5 -33.5t78 -15q152 0 152 172q0 73 -29.5 115.5t-142.5 138.5q-43 36 -65.5 56t-50 51t-40.5 57.5t-22 63t-9 79.5q0 221 217 221q61 0 104 -19t64 -43.5t32.5 -64t13 -62t1.5 -57.5v-71h-88v71q0 85 -29.5 124.5 t-97.5 39.5q-44 0 -72.5 -13.5t-39.5 -37.5t-14 -41t-3 -41q0 -55 9.5 -83t51 -73t142.5 -128q85 -69 120.5 -125.5t35.5 -155.5q0 -120 -58 -189t-182 -69q-75 0 -125 20.5t-76 62t-35.5 89.5t-9.5 117z" />
<glyph unicode="t" horiz-adv-x="382" d="M18 948v82h109v266h88v-266h156v-82h-156v-811q0 -59 78 -59q32 0 78 4v-82q-70 -4 -92 -4q-84 0 -118 28t-34 91v833h-109z" />
<glyph unicode="u" horiz-adv-x="681" d="M102 199v831h86v-762q0 -198 136 -198q57 0 98 34.5t61 98.5v827h88v-1030h-88v96q-30 -45 -80.5 -73.5t-105.5 -28.5q-50 0 -89.5 20t-61.5 52t-33 66t-11 67z" />
<glyph unicode="v" horiz-adv-x="555" d="M29 1030h90l155 -895l152 895h94l-196 -1030h-101z" />
<glyph unicode="w" horiz-adv-x="894" d="M29 1030h88l141 -883l156 883h71l140 -883l155 883h90l-198 -1030h-88l-135 842l-148 -842h-90z" />
<glyph unicode="x" d="M25 0l223 537l-205 493h94l160 -405l164 405h94l-207 -483l219 -547h-96l-174 463l-176 -463h-96z" />
<glyph unicode="y" horiz-adv-x="598" d="M18 -250q16 -4 43 -4q136 0 168 143l27 119l-225 1022h88l180 -856l182 856h92l-264 -1147q-13 -53 -27.5 -87.5t-43.5 -65.5t-72 -46.5t-71 -17.5t-77 -2v86z" />
<glyph unicode="z" horiz-adv-x="598" d="M74 0v78l354 866h-326v86h430v-72l-358 -872h356v-86h-456z" />
<glyph unicode="{" horiz-adv-x="724" d="M158 547v67q47 10 71 27q62 45 62 246v180q0 62 6.5 112.5t25 100t48.5 83.5t79.5 56.5t116.5 26.5v-64q-79 -20 -118 -53.5t-54.5 -96.5t-15.5 -183v-80q0 -49 -0.5 -79t-3 -71t-7.5 -67t-14 -55.5t-22 -48.5t-33 -36t-45 -26v-8q32 -13 54.5 -36.5t36 -51.5t20.5 -69.5 t9.5 -81.5t2.5 -97v-123q0 -177 38.5 -246t151.5 -94v-66q-72 6 -124 32.5t-80.5 62.5t-44.5 92.5t-20.5 105.5t-4.5 117v158q0 59 -4.5 99.5t-18 79.5t-41.5 61t-71 26z" />
<glyph unicode="|" horiz-adv-x="468" d="M190 -512v2044h89v-2044h-89z" />
<glyph unicode="}" horiz-adv-x="724" d="M158 -221q114 25 152 93.5t38 246.5v123q0 57 2.5 97t9.5 81.5t20.5 69.5t36 51.5t54.5 36.5v8q-35 13 -59 40t-36.5 58t-19.5 82.5t-8.5 93t-1.5 109.5v80q0 120 -15.5 183t-54.5 96.5t-118 53.5v64q67 -4 116 -27t78.5 -56.5t47.5 -83t24 -99.5t6 -113v-180 q0 -198 66 -246q24 -17 71 -27v-67q-42 -4 -70.5 -26t-42.5 -60.5t-19 -80t-5 -99.5v-158q0 -57 -3 -98.5t-12 -90.5t-27.5 -83.5t-47.5 -65.5t-75 -49t-107 -23v66z" />
<glyph unicode="~" horiz-adv-x="1163" d="M135 567q71 85 120.5 115.5t125.5 30.5q72 0 156 -37l118 -51q84 -37 125 -37q44 0 83.5 24.5t94.5 87.5l68 -55q-64 -78 -124 -111.5t-126 -33.5q-74 0 -190 53l-54 25q-98 45 -159 45q-43 0 -78.5 -21.5t-79.5 -75.5l-12 -12z" />
<glyph unicode="&#xa1;" horiz-adv-x="382" d="M96 1266v180h92v-180h-92zM98 0v788l19 279h53l29 -299v-768h-101z" />
<glyph unicode="&#xa2;" d="M82 283v487q0 239 201 258v127h59v-125q64 -6 108 -30t66 -63.5t30.5 -83t8.5 -99.5v-90h-86v81q0 209 -147 209q-41 0 -71.5 -16t-45 -37t-23.5 -49.5t-10.5 -45.5t-1.5 -34v-467q0 -39 1.5 -64t10.5 -59.5t25.5 -55t48 -35.5t76.5 -15q39 0 68 14t43 32t21.5 43.5 t9 40.5t1.5 32v155h90v-151q0 -29 -2.5 -52t-14.5 -57.5t-33 -59.5t-62.5 -47t-98.5 -30v-141h-59v141q-115 12 -164 81.5t-49 205.5z" />
<glyph unicode="&#xa3;" horiz-adv-x="817" d="M61 0v100q163 30 243.5 110t80.5 224q0 68 -17 111t-63 108h-231v76h182q-46 79 -58 146t-12 258q0 167 67 247t200 80q60 0 104.5 -17.5t72 -46t44 -72t22.5 -90t6 -104.5v-135h-94v72q0 42 -0.5 67t-2.5 59t-6.5 53.5t-12.5 43.5t-20 36.5t-29 25t-40 17.5t-53 5 q-91 0 -127 -53.5t-36 -181.5q0 -189 12.5 -254t73.5 -156h247v-76h-198q37 -56 52 -104t15 -109q0 -228 -207 -340q41 -2 151.5 -11t133.5 -9q89 0 209 24v-90q-113 -22 -180 -22q-8 0 -172 10t-207 10q-74 0 -150 -12z" />
<glyph unicode="&#xa4;" horiz-adv-x="1267" d="M115 217l141 145q-113 143 -113 334q0 183 111 332l-139 152l73 67l136 -145q140 119 313 119q167 0 307 -117l139 143l68 -71l-137 -148q110 -150 110 -336q0 -173 -112 -330l139 -153l-72 -72l-135 152q-78 -65 -149.5 -92t-163.5 -27q-88 0 -161 28t-146 89l-140 -144 zM244 696q0 -189 113.5 -314.5t283.5 -125.5q163 0 272 125.5t109 312.5q0 191 -110 316t-277 125q-166 0 -278.5 -126.5t-112.5 -312.5z" />
<glyph unicode="&#xa5;" horiz-adv-x="724" d="M29 1446h106l234 -682l241 682h97l-224 -610h176v-88h-206l-33 -89v-34h239v-88h-247v-537h-99v537h-247v88h241v34l-31 89h-210v88h178z" />
<glyph unicode="&#xa6;" horiz-adv-x="468" d="M190 389h89v-901h-89v901zM190 631v899h89v-899h-89z" />
<glyph unicode="&#xa7;" horiz-adv-x="768" d="M92 125v108h92v-151q0 -195 195 -195q42 0 74.5 9t53.5 21.5t35.5 33.5t21.5 38t11 42.5t4.5 39t0.5 35.5q0 39 -1 62t-10.5 46.5t-17.5 35.5t-35.5 32.5t-50 33.5t-74.5 42q-51 29 -77 44t-64.5 39t-57 40t-42 40t-33.5 46t-17.5 50.5t-7.5 60.5q0 139 129 231 q-25 20 -39 34t-32.5 42t-27.5 69t-9 95q0 75 16 131.5t42 90.5t64.5 55t78.5 28.5t89 7.5q267 0 267 -241v-166h-90v149q0 38 -6 65.5t-23.5 53.5t-55 39.5t-94.5 13.5q-111 0 -153.5 -57t-42.5 -170q0 -40 10 -71.5t23.5 -53t46.5 -46t57 -39t78 -44.5q47 -26 68.5 -38 t56 -33t50 -33.5t38 -32.5t32 -36.5t20 -39t14 -47.5t3.5 -55q0 -53 -18 -104t-34.5 -76t-45.5 -62q45 -46 56.5 -95t11.5 -137q0 -143 -70.5 -222t-218.5 -79q-76 0 -130.5 18.5t-85 47t-48 73.5t-22.5 85.5t-5 95.5zM180 692q0 -57 29.5 -96.5t109.5 -89.5 q23 -14 236 -133q17 21 27 36.5t20 51.5t10 80q0 78 -28 123t-80 77q-14 9 -111.5 65t-116.5 68q-96 -63 -96 -182z" />
<glyph unicode="&#xa8;" horiz-adv-x="468" d="M84 1198v158h98v-158h-98zM287 1198v158h98v-158h-98z" />
<glyph unicode="&#xa9;" horiz-adv-x="1705" d="M125 727q0 120 36 231t103 200t156 155.5t201 102.5t233 36q150 0 285 -57t232.5 -154t154.5 -233.5t57 -288.5q0 -200 -98 -367t-266 -262.5t-367 -95.5q-150 0 -284.5 57.5t-231.5 155t-154 233.5t-57 287zM190 721q0 -180 89 -332.5t241.5 -241t333.5 -88.5 q135 0 258 52t212 140.5t141.5 211t52.5 256.5q0 185 -87.5 338t-239.5 241t-335 88q-137 0 -260.5 -52t-212 -141t-141 -212t-52.5 -260zM606 492v460q0 236 238 236q233 0 233 -215v-119h-100v111q0 75 -35.5 100t-99.5 25q-63 0 -98 -27.5t-35 -99.5v-474 q0 -87 31.5 -117t101.5 -30q38 0 64 8.5t40 20.5t21 36t8.5 43.5t1.5 55.5v80h100v-119q0 -113 -55 -168t-178 -55q-63 0 -109 17t-70.5 41t-38 60.5t-17 64.5t-3.5 65z" />
<glyph unicode="&#xaa;" horiz-adv-x="382" d="M33 1004q0 41 9.5 71t34.5 54t45 37.5t65.5 39.5t72.5 43v54q0 50 -12.5 73t-54.5 23q-20 0 -33.5 -6.5t-21 -16.5t-11.5 -29.5t-5 -36.5t-1 -46h-64v34q0 21 1.5 37.5t9 41.5t21.5 41.5t42 29t66 12.5q131 0 131 -133v-379q0 -7 0.5 -10.5t3 -8.5t9.5 -7t19 -2v-58 q-2 0 -11 -1t-13 -1q-57 0 -76 37q-56 -37 -104 -37q-60 0 -91.5 43t-31.5 101zM102 1008q0 -40 20 -62t48 -22q43 0 90 47v200q-96 -46 -127 -77.5t-31 -85.5z" />
<glyph unicode="&#xab;" horiz-adv-x="768" d="M55 600l256 205h125l-258 -203l250 -207h-123zM344 600l256 205h121l-250 -205l240 -205h-115z" />
<glyph unicode="&#xac;" horiz-adv-x="1144" d="M135 561v84h838v-463h-92v379h-746z" />
<glyph unicode="&#xad;" horiz-adv-x="507" d="M72 555v86h362v-86h-362z" />
<glyph unicode="&#xae;" horiz-adv-x="1705" d="M125 727q0 120 36 231t103 200t156 155.5t201 102.5t233 36q150 0 285 -57t232.5 -154t154.5 -233.5t57 -288.5q0 -200 -98 -367t-266 -262.5t-367 -95.5q-150 0 -284.5 57.5t-231.5 155t-154 233.5t-57 287zM190 721q0 -180 89 -332.5t241.5 -241t333.5 -88.5 q135 0 258 52t212 140.5t141.5 211t52.5 256.5q0 185 -87.5 338t-239.5 241t-335 88q-137 0 -260.5 -52t-212 -141t-141 -212t-52.5 -260zM649 258v920h189q48 0 84 -5t71.5 -21t58 -42.5t36.5 -72t14 -107.5q0 -99 -41 -165t-127 -85l201 -422h-115l-193 410h-73v-410h-105 zM754 758h82q49 0 81.5 13t49 38t22.5 52.5t6 64.5q0 157 -133 157h-108v-325z" />
<glyph unicode="&#xaf;" horiz-adv-x="468" d="M31 1198v86h407v-86h-407z" />
<glyph unicode="&#xb0;" horiz-adv-x="724" d="M72 1233q0 120 85 205.5t205 85.5q121 0 206 -85.5t85 -205.5q0 -121 -84.5 -206t-206.5 -85q-121 0 -205.5 84.5t-84.5 206.5zM164 1233q0 -82 57.5 -141.5t140.5 -59.5t142 59t59 142t-59 141t-142 58q-82 0 -140 -58.5t-58 -140.5z" />
<glyph unicode="&#xb1;" horiz-adv-x="1144" d="M174 0v86h797v-86h-797zM174 561v86h356v377h86v-377h355v-86h-355v-375h-86v375h-356z" />
<glyph unicode="&#xb2;" horiz-adv-x="468" d="M51 543v71q8 33 15.5 50t39.5 67q28 42 64.5 93.5t55.5 78.5t41 66.5t32.5 73.5t17.5 82.5t7 109.5q0 27 -2 46.5t-10 44.5t-27 38.5t-49 13.5q-31 0 -51 -14t-28 -36.5t-10 -37.5t-2 -30v-115h-73v129q0 80 39 129t127 49q43 0 74.5 -15t47.5 -35.5t25.5 -49.5 t11.5 -49.5t2 -42.5q0 -94 -4 -143t-25.5 -107t-50.5 -103.5t-96 -138.5q-31 -44 -45 -64.5t-27.5 -45t-19.5 -44.5h270v-71h-350z" />
<glyph unicode="&#xb3;" horiz-adv-x="468" d="M47 750v81h76q0 -43 0.5 -65t3.5 -53.5t10 -47.5t19 -33t31 -23.5t46 -6.5q37 0 61.5 16t34 42t12.5 44t3 37v95q0 39 -10.5 67t-25 43.5t-41.5 25t-49 12.5t-58 5v76q168 0 168 135v86q0 92 -84 92q-50 0 -68 -27t-18 -75v-102h-76v102q0 176 162 176t162 -176 q0 -120 -18.5 -167t-90.5 -79q68 -28 95.5 -70t27.5 -135v-55q0 -116 -41.5 -178t-145.5 -62q-49 0 -85 17.5t-55 41.5t-30 57t-13.5 56.5t-2.5 47.5z" />
<glyph unicode="&#xb4;" horiz-adv-x="468" d="M51 1161l172 223h195l-293 -223h-74z" />
<glyph unicode="&#xb5;" horiz-adv-x="681" d="M102 -334v1364h86v-786q0 -83 35.5 -128.5t100.5 -45.5q57 0 92.5 30t66.5 103v827h86v-880q0 -45 8.5 -57.5t38.5 -12.5h19v-82h-10q-77 0 -104.5 18.5t-33.5 73.5q-67 -94 -174 -94q-78 0 -125 55v-385h-86z" />
<glyph unicode="&#xb6;" horiz-adv-x="1284" d="M190 1057q0 183 112 286t316 103h396v-86h-68v-1702h-90v1702h-276v-1702h-93v1034q-141 19 -219 115t-78 250z" />
<glyph unicode="&#xb7;" horiz-adv-x="299" d="M102 500v184h91v-184h-91z" />
<glyph unicode="&#xb8;" horiz-adv-x="468" d="M68 -264l38 45q72 -39 113 -39q39 0 56.5 22t17.5 43q0 71 -113 87l8 159h70l-8 -102q60 -16 104.5 -55t44.5 -97q0 -18 -7 -37.5t-22.5 -41t-45.5 -35t-70 -13.5q-49 0 -90.5 16t-95.5 48z" />
<glyph unicode="&#xb9;" horiz-adv-x="468" d="M88 1249v72q70 18 97.5 47t43.5 80h70v-905h-80v762q-60 -45 -131 -56z" />
<glyph unicode="&#xba;" horiz-adv-x="382" d="M45 1008v292q0 164 145 164q144 0 144 -157v-287q0 -162 -146 -162q-143 0 -143 150zM109 1014q0 -90 79 -90q78 0 78 90v282q0 31 -3.5 50t-20.5 36t-49 17q-42 0 -63 -22t-21 -74v-289z" />
<glyph unicode="&#xbb;" horiz-adv-x="768" d="M41 391l254 209l-238 201h113l250 -201l-254 -209h-125zM326 391l264 207l-250 203h125l248 -201l-258 -209h-129z" />
<glyph unicode="&#xbc;" horiz-adv-x="1193" d="M88 1249v72q70 18 97.5 47t43.5 80h70v-905h-80v762q-60 -45 -131 -56zM186 -121l752 1731l51 -25l-751 -1728zM760 270v88l231 545h96v-561h107v-72h-107v-270h-75v270h-252zM827 342h185v453z" />
<glyph unicode="&#xbd;" horiz-adv-x="1193" d="M88 1249v72q70 18 97.5 47t43.5 80h70v-905h-80v762q-60 -45 -131 -56zM168 -121l752 1731l51 -25l-752 -1728zM776 0v72q8 33 15.5 49.5t39.5 66.5q28 42 64.5 93.5t55.5 78.5t41 66.5t32.5 73.5t17.5 82.5t7 109.5q0 21 -1 36.5t-6 37.5t-13.5 36t-26 24t-41.5 10 q-31 0 -51 -14t-28 -37t-10 -38t-2 -30v-115h-73v129q0 80 39 129t127 49q43 0 74.5 -15t47.5 -35.5t25.5 -49.5t11.5 -49.5t2 -42.5q0 -94 -4 -143t-25.5 -107t-50.5 -103.5t-96 -138.5q-33 -47 -45.5 -65t-26.5 -43t-20 -45h270v-72h-350z" />
<glyph unicode="&#xbe;" horiz-adv-x="1193" d="M47 750v81h76q0 -43 0.5 -65t3.5 -53.5t10 -47.5t19 -33t31 -23.5t46 -6.5q37 0 61.5 16t34 42t12.5 44t3 37v95q0 39 -10.5 67t-25 43.5t-41.5 25t-49 12.5t-58 5v76q168 0 168 135v86q0 92 -84 92q-50 0 -68 -27t-18 -75v-102h-76v102q0 176 162 176t162 -176 q0 -120 -18.5 -167t-90.5 -79q68 -28 95.5 -70t27.5 -135v-55q0 -116 -41.5 -178t-145.5 -62q-49 0 -85 17.5t-55 41.5t-30 57t-13.5 56.5t-2.5 47.5zM229 -121l750 1731l53 -25l-753 -1728zM760 270v88l231 545h96v-561h107v-72h-107v-270h-75v270h-252zM827 342h185v453z " />
<glyph unicode="&#xbf;" horiz-adv-x="724" d="M76 358q0 120 17 188.5t71 147.5q7 10 38 52.5t42.5 61.5t25 54.5t13.5 67.5v160h96v-179q0 -74 -45 -139l-94 -137q-33 -47 -50.5 -98.5t-17.5 -130.5v-60q0 -135 36.5 -210t125.5 -75q46 0 78 23t47.5 62t21.5 77t6 80v156h97v-125q0 -38 -1.5 -69t-8 -70t-17 -68.5 t-30 -59t-45.5 -49t-65 -31.5t-87 -12q-57 0 -101 17t-71 49t-44.5 67t-25 83t-10 84t-2.5 83zM281 1262v184h98v-184h-98z" />
<glyph unicode="&#xc0;" horiz-adv-x="768" d="M49 0l264 1454h140l262 -1454h-107l-73 440h-304l-75 -440h-107zM92 1802h199l180 -223h-68zM248 535h268l-133 786z" />
<glyph unicode="&#xc1;" horiz-adv-x="768" d="M49 0l264 1454h140l262 -1454h-107l-73 440h-304l-75 -440h-107zM248 535h268l-133 786zM276 1575l175 223h192l-291 -223h-76z" />
<glyph unicode="&#xc2;" horiz-adv-x="768" d="M49 0l264 1454h140l262 -1454h-107l-73 440h-304l-75 -440h-107zM172 1575l160 223h102l150 -221h-82l-119 139l-125 -141h-86zM248 535h268l-133 786z" />
<glyph unicode="&#xc3;" horiz-adv-x="768" d="M49 0l264 1454h140l262 -1454h-107l-73 440h-304l-75 -440h-107zM158 1591q0 71 29.5 119.5t97.5 48.5q39 0 115 -36.5t102 -36.5q51 0 55 73h59q0 -38 -4 -65.5t-15.5 -52.5t-34 -37.5t-56.5 -12.5q-38 0 -119 39t-106 39q-60 0 -64 -78h-59zM248 535h268l-133 786z" />
<glyph unicode="&#xc4;" horiz-adv-x="768" d="M49 0l264 1454h140l262 -1454h-107l-73 440h-304l-75 -440h-107zM178 1616v156h107v-156h-107zM248 535h268l-133 786zM481 1616v156h107v-156h-107z" />
<glyph unicode="&#xc5;" horiz-adv-x="768" d="M49 0l264 1454h140l262 -1454h-107l-73 440h-304l-75 -440h-107zM248 535h268l-133 786zM248 1667q0 57 39.5 96t95.5 39q57 0 96 -39.5t39 -95.5q0 -57 -39.5 -96t-95.5 -39q-17 0 -38 6t-44 20t-38 42.5t-15 66.5zM293 1667q0 -45 28.5 -67.5t61.5 -22.5q38 0 64 26.5 t26 63.5q0 38 -26.5 64t-63.5 26q-38 0 -64 -26.5t-26 -63.5z" />
<glyph unicode="&#xc6;" horiz-adv-x="1024" d="M43 0l371 1446h534v-88h-325v-559h299v-90h-299v-619h360v-90h-461v627h-221l-154 -627h-104zM322 711h200v647h-37z" />
<glyph unicode="&#xc7;" horiz-adv-x="768" d="M106 301v870q0 146 81.5 217.5t205.5 71.5q122 0 198.5 -68.5t76.5 -193.5v-219h-101v164q0 112 -40 168.5t-132 56.5q-48 0 -84.5 -16t-56 -39t-31.5 -54.5t-15 -56t-3 -49.5v-782q0 -52 3 -89.5t15 -80t32.5 -68.5t59 -43.5t91.5 -17.5q36 0 65 9t47 22.5t31 33.5 t19 36t9.5 37t4 30.5t0.5 21.5v236h102v-224q0 -46 -5 -81.5t-21.5 -75.5t-45 -67.5t-79.5 -47.5t-121 -25l-2 -28q61 -17 104 -53t43 -97q0 -18 -7 -37.5t-22 -41t-45.5 -35t-70.5 -13.5q-34 0 -69 10t-57.5 21.5t-58.5 32.5l39 45q72 -39 111 -39q32 0 53 17.5t21 47.5 q0 68 -111 84l4 89q-238 36 -238 321z" />
<glyph unicode="&#xc8;" horiz-adv-x="681" d="M80 1802h199l180 -223h-68zM121 0v1446h512v-90h-414v-557h340v-88h-340v-621h412v-90h-510z" />
<glyph unicode="&#xc9;" horiz-adv-x="681" d="M121 0v1446h512v-90h-414v-557h340v-88h-340v-621h412v-90h-510zM268 1575l174 223h193l-291 -223h-76z" />
<glyph unicode="&#xca;" horiz-adv-x="681" d="M121 0v1446h512v-90h-414v-557h340v-88h-340v-621h412v-90h-510zM152 1575l159 223h103l149 -221h-82l-119 139l-124 -141h-86z" />
<glyph unicode="&#xcb;" horiz-adv-x="681" d="M121 0v1446h512v-90h-414v-557h340v-88h-340v-621h412v-90h-510zM160 1616v156h106v-156h-106zM463 1616v156h106v-156h-106z" />
<glyph unicode="&#xcc;" horiz-adv-x="342" d="M-90 1802h199l180 -223h-68zM119 0v1446h104v-1446h-104z" />
<glyph unicode="&#xcd;" horiz-adv-x="342" d="M45 1575l174 223h193l-291 -223h-76zM119 0v1446h104v-1446h-104z" />
<glyph unicode="&#xce;" horiz-adv-x="342" d="M-41 1575l160 223h102l150 -221h-82l-119 139l-125 -141h-86zM119 0v1446h104v-1446h-104z" />
<glyph unicode="&#xcf;" horiz-adv-x="342" d="M-33 1616v156h107v-156h-107zM119 0v1446h104v-1446h-104zM270 1616v156h107v-156h-107z" />
<glyph unicode="&#xd0;" horiz-adv-x="811" d="M0 758v86h123v602h166q99 0 175.5 -24t139.5 -101q56 -67 75 -176t19 -297v-346q0 -52 -2 -90.5t-11 -94.5t-24.5 -96.5t-45.5 -84.5t-71 -72t-104.5 -46t-142.5 -18h-174v758h-123zM223 92h84q58 0 104 15t76 37.5t52 58t33.5 68t18 75t8 71.5t1.5 66v375 q0 180 -19.5 276.5t-84.5 153.5q-46 40 -95 53t-112 13h-66v-510h223v-86h-223v-666z" />
<glyph unicode="&#xd1;" horiz-adv-x="811" d="M113 0v1446h147l346 -1391q-14 1311 -14 1391h98v-1446h-153l-336 1366q8 -1219 8 -1366h-96zM180 1591q0 71 29.5 119.5t97.5 48.5q39 0 115 -36.5t102 -36.5q52 0 56 73h59q0 -30 -2.5 -53t-9.5 -45.5t-19 -37t-32.5 -23.5t-47.5 -9q-38 0 -119 39t-106 39 q-59 0 -63 -78h-60z" />
<glyph unicode="&#xd2;" horiz-adv-x="811" d="M111 299v846q0 142 72.5 229.5t219.5 87.5q78 0 134.5 -22.5t86.5 -55.5t47 -84.5t21 -93t4 -98.5v-825q0 -43 -7.5 -82t-28 -80t-52.5 -71t-85.5 -49t-123.5 -19q-154 0 -221 82t-67 235zM123 1802h199l180 -223h-68zM209 303q0 -231 197 -231q48 0 84 16t56.5 40.5 t33 59t16.5 65.5t4 66v758q0 163 -50.5 229t-146.5 66q-52 0 -90.5 -18.5t-60.5 -50.5t-32.5 -69.5t-10.5 -80.5v-850z" />
<glyph unicode="&#xd3;" horiz-adv-x="811" d="M111 299v846q0 142 72.5 229.5t219.5 87.5q78 0 134.5 -22.5t86.5 -55.5t47 -84.5t21 -93t4 -98.5v-825q0 -43 -7.5 -82t-28 -80t-52.5 -71t-85.5 -49t-123.5 -19q-154 0 -221 82t-67 235zM209 303q0 -231 197 -231q48 0 84 16t56.5 40.5t33 59t16.5 65.5t4 66v758 q0 163 -50.5 229t-146.5 66q-52 0 -90.5 -18.5t-60.5 -50.5t-32.5 -69.5t-10.5 -80.5v-850zM299 1575l174 223h193l-291 -223h-76z" />
<glyph unicode="&#xd4;" horiz-adv-x="811" d="M111 299v846q0 142 72.5 229.5t219.5 87.5q78 0 134.5 -22.5t86.5 -55.5t47 -84.5t21 -93t4 -98.5v-825q0 -43 -7.5 -82t-28 -80t-52.5 -71t-85.5 -49t-123.5 -19q-154 0 -221 82t-67 235zM195 1575l159 223h103l149 -221h-82l-118 139l-125 -141h-86zM209 303 q0 -231 197 -231q48 0 84 16t56.5 40.5t33 59t16.5 65.5t4 66v758q0 163 -50.5 229t-146.5 66q-52 0 -90.5 -18.5t-60.5 -50.5t-32.5 -69.5t-10.5 -80.5v-850z" />
<glyph unicode="&#xd5;" horiz-adv-x="811" d="M111 299v846q0 142 72.5 229.5t219.5 87.5q78 0 134.5 -22.5t86.5 -55.5t47 -84.5t21 -93t4 -98.5v-825q0 -43 -7.5 -82t-28 -80t-52.5 -71t-85.5 -49t-123.5 -19q-154 0 -221 82t-67 235zM180 1591q0 71 29.5 119.5t97.5 48.5q39 0 115 -36.5t102 -36.5q52 0 56 73h59 q0 -30 -2.5 -53t-9.5 -45.5t-19 -37t-32.5 -23.5t-47.5 -9q-38 0 -119 39t-106 39q-59 0 -63 -78h-60zM209 303q0 -231 197 -231q48 0 84 16t56.5 40.5t33 59t16.5 65.5t4 66v758q0 163 -50.5 229t-146.5 66q-52 0 -90.5 -18.5t-60.5 -50.5t-32.5 -69.5t-10.5 -80.5v-850z " />
<glyph unicode="&#xd6;" horiz-adv-x="811" d="M111 299v846q0 142 72.5 229.5t219.5 87.5q78 0 134.5 -22.5t86.5 -55.5t47 -84.5t21 -93t4 -98.5v-825q0 -43 -7.5 -82t-28 -80t-52.5 -71t-85.5 -49t-123.5 -19q-154 0 -221 82t-67 235zM199 1616v156h106v-156h-106zM209 303q0 -231 197 -231q48 0 84 16t56.5 40.5 t33 59t16.5 65.5t4 66v758q0 163 -50.5 229t-146.5 66q-52 0 -90.5 -18.5t-60.5 -50.5t-32.5 -69.5t-10.5 -80.5v-850zM502 1616v156h106v-156h-106z" />
<glyph unicode="&#xd7;" horiz-adv-x="1142" d="M244 874l63 64l264 -264l242 268l61 -59l-243 -271l260 -260l-62 -65l-260 258l-229 -258l-66 57l236 260z" />
<glyph unicode="&#xd8;" horiz-adv-x="811" d="M72 -37l73 174q-19 38 -26.5 69t-7.5 95v860q0 140 81 226t220 86q53 0 97.5 -14.5t72.5 -38t45.5 -44.5t27.5 -43l58 135l55 -26l-82 -193q10 -55 10 -104v-830q0 -166 -79 -248.5t-218 -82.5q-60 0 -105.5 16t-65 32t-46.5 46l-57 -137zM209 283l385 907 q-7 62 -28.5 103.5t-52 59t-55.5 23.5t-55 6q-46 0 -81.5 -16.5t-56 -41t-34 -58t-18 -64t-4.5 -61.5v-858zM229 188q24 -56 59.5 -84t114.5 -28q50 0 87 16t57 40t32 60t15.5 68t3.5 72v706z" />
<glyph unicode="&#xd9;" horiz-adv-x="811" d="M117 287v1159h98v-1120q0 -46 3 -78.5t14.5 -68.5t31.5 -58t56.5 -36.5t87.5 -14.5q106 0 145 61t39 180v1135h100v-1159q0 -163 -79.5 -237.5t-211.5 -74.5q-59 0 -107 15.5t-89.5 50t-64.5 97t-23 149.5zM123 1802h199l180 -223h-68z" />
<glyph unicode="&#xda;" horiz-adv-x="811" d="M117 287v1159h98v-1120q0 -46 3 -78.5t14.5 -68.5t31.5 -58t56.5 -36.5t87.5 -14.5q106 0 145 61t39 180v1135h100v-1159q0 -163 -79.5 -237.5t-211.5 -74.5q-59 0 -107 15.5t-89.5 50t-64.5 97t-23 149.5zM299 1575l174 223h193l-291 -223h-76z" />
<glyph unicode="&#xdb;" horiz-adv-x="811" d="M117 287v1159h98v-1120q0 -46 3 -78.5t14.5 -68.5t31.5 -58t56.5 -36.5t87.5 -14.5q106 0 145 61t39 180v1135h100v-1159q0 -163 -79.5 -237.5t-211.5 -74.5q-59 0 -107 15.5t-89.5 50t-64.5 97t-23 149.5zM195 1575l159 223h103l149 -221h-82l-118 139l-125 -141h-86z " />
<glyph unicode="&#xdc;" horiz-adv-x="811" d="M117 287v1159h98v-1120q0 -46 3 -78.5t14.5 -68.5t31.5 -58t56.5 -36.5t87.5 -14.5q106 0 145 61t39 180v1135h100v-1159q0 -163 -79.5 -237.5t-211.5 -74.5q-59 0 -107 15.5t-89.5 50t-64.5 97t-23 149.5zM199 1616v156h106v-156h-106zM502 1616v156h106v-156h-106z" />
<glyph unicode="&#xdd;" horiz-adv-x="724" d="M29 1446h106l232 -680l229 680h111l-295 -807v-639h-99v639zM289 1575l174 223h192l-290 -223h-76z" />
<glyph unicode="&#xde;" horiz-adv-x="768" d="M119 0v1446h98v-240h125q101 0 150 -8q51 -10 88 -32.5t56 -49t30 -66t13.5 -70t2.5 -73.5v-205q0 -75 -21 -129.5t-51.5 -83.5t-76 -45.5t-82.5 -21t-84 -4.5h-148v-418h-100zM217 502h164q35 0 59.5 3t53.5 15.5t47 35.5t30.5 64.5t12.5 100.5v123q0 101 -10.5 155.5 t-45.5 85.5q-41 35 -151 35h-160v-618z" />
<glyph unicode="&#xdf;" horiz-adv-x="724" d="M111 0v1190q0 152 66.5 212t191.5 60q113 0 168 -55.5t55 -146.5v-175q0 -37 -7.5 -67t-22 -49.5t-27.5 -33t-33.5 -23t-29.5 -13t-26 -8.5q60 -21 98.5 -49t55.5 -65t22 -69.5t5 -80.5v-457q0 -34 -7.5 -64t-26 -59t-55.5 -46t-89 -17q-43 0 -73 13t-44.5 35.5t-20.5 45 t-6 49.5v160h60v-133q0 -34 18.5 -61t65.5 -27q90 0 90 122v404q0 68 -12 117.5t-52 83.5q-21 18 -48 28.5t-47 13t-56 5.5v88q32 1 48.5 3t39 10.5t41.5 25.5q24 20 36 47t13.5 46.5t1.5 57.5v92q0 38 -4.5 64t-18.5 52t-43.5 39t-75.5 13q-52 0 -85.5 -14t-50 -43.5 t-22 -62.5t-5.5 -84v-1174h-88z" />
<glyph unicode="&#xe0;" d="M57 242q0 70 21 125.5t53.5 89.5t77.5 64.5t86.5 50t87.5 45.5t74 51v141q0 68 -27.5 106.5t-99.5 38.5q-79 0 -110.5 -42.5t-31.5 -145.5v-53h-88v55q0 146 57 207t177 61q107 0 159 -54t52 -153v-710q0 -24 15 -30.5t46 -6.5v-82h-18q-62 1 -90 20t-39 60 q-99 -80 -201 -80q-101 0 -151 69t-50 173zM61 1389h199l178 -224h-67zM145 240q0 -20 3.5 -40t15.5 -50t42 -49t75 -19q55 0 94.5 24.5t83.5 71.5v393q-30 -21 -96 -57t-74 -41q-74 -43 -109 -97t-35 -136z" />
<glyph unicode="&#xe1;" d="M57 242q0 70 21 125.5t53.5 89.5t77.5 64.5t86.5 50t87.5 45.5t74 51v141q0 68 -27.5 106.5t-99.5 38.5q-79 0 -110.5 -42.5t-31.5 -145.5v-53h-88v55q0 146 57 207t177 61q107 0 159 -54t52 -153v-710q0 -24 15 -30.5t46 -6.5v-82h-18q-62 1 -90 20t-39 60 q-99 -80 -201 -80q-101 0 -151 69t-50 173zM145 240q0 -20 3.5 -40t15.5 -50t42 -49t75 -19q55 0 94.5 24.5t83.5 71.5v393q-30 -21 -96 -57t-74 -41q-74 -43 -109 -97t-35 -136zM223 1161l172 223h195l-293 -223h-74z" />
<glyph unicode="&#xe2;" d="M57 242q0 70 21 125.5t53.5 89.5t77.5 64.5t86.5 50t87.5 45.5t74 51v141q0 68 -27.5 106.5t-99.5 38.5q-79 0 -110.5 -42.5t-31.5 -145.5v-53h-88v55q0 146 57 207t177 61q107 0 159 -54t52 -153v-710q0 -24 15 -30.5t46 -6.5v-82h-18q-62 1 -90 20t-39 60 q-99 -80 -201 -80q-101 0 -151 69t-50 173zM131 1163l160 223h102l150 -223h-82l-119 142l-125 -142h-86zM145 240q0 -20 3.5 -40t15.5 -50t42 -49t75 -19q55 0 94.5 24.5t83.5 71.5v393q-30 -21 -96 -57t-74 -41q-74 -43 -109 -97t-35 -136z" />
<glyph unicode="&#xe3;" d="M57 242q0 70 21 125.5t53.5 89.5t77.5 64.5t86.5 50t87.5 45.5t74 51v141q0 68 -27.5 106.5t-99.5 38.5q-79 0 -110.5 -42.5t-31.5 -145.5v-53h-88v55q0 146 57 207t177 61q107 0 159 -54t52 -153v-710q0 -24 15 -30.5t46 -6.5v-82h-18q-62 1 -90 20t-39 60 q-99 -80 -201 -80q-101 0 -151 69t-50 173zM121 1178q0 70 30 116.5t95 46.5q39 0 110.5 -34.5t96.5 -34.5q51 0 51 69h61q0 -81 -20.5 -122t-83.5 -41q-37 0 -117.5 35.5t-103.5 35.5q-57 0 -60 -71h-59zM145 240q0 -20 3.5 -40t15.5 -50t42 -49t75 -19q55 0 94.5 24.5 t83.5 71.5v393q-30 -21 -96 -57t-74 -41q-74 -43 -109 -97t-35 -136z" />
<glyph unicode="&#xe4;" d="M57 242q0 70 21 125.5t53.5 89.5t77.5 64.5t86.5 50t87.5 45.5t74 51v141q0 68 -27.5 106.5t-99.5 38.5q-79 0 -110.5 -42.5t-31.5 -145.5v-53h-88v55q0 146 57 207t177 61q107 0 159 -54t52 -153v-710q0 -24 15 -30.5t46 -6.5v-82h-18q-62 1 -90 20t-39 60 q-99 -80 -201 -80q-101 0 -151 69t-50 173zM145 240q0 -20 3.5 -40t15.5 -50t42 -49t75 -19q55 0 94.5 24.5t83.5 71.5v393q-30 -21 -96 -57t-74 -41q-74 -43 -109 -97t-35 -136zM186 1198v158h99v-158h-99zM389 1198v158h98v-158h-98z" />
<glyph unicode="&#xe5;" d="M57 242q0 70 21 125.5t53.5 89.5t77.5 64.5t86.5 50t87.5 45.5t74 51v141q0 68 -27.5 106.5t-99.5 38.5q-79 0 -110.5 -42.5t-31.5 -145.5v-53h-88v55q0 146 57 207t177 61q107 0 159 -54t52 -153v-710q0 -24 15 -30.5t46 -6.5v-82h-18q-62 1 -90 20t-39 60 q-99 -80 -201 -80q-101 0 -151 69t-50 173zM145 240q0 -20 3.5 -40t15.5 -50t42 -49t75 -19q55 0 94.5 24.5t83.5 71.5v393q-30 -21 -96 -57t-74 -41q-74 -43 -109 -97t-35 -136zM203 1262q0 57 39.5 97t95.5 40t95.5 -40.5t39.5 -96.5q0 -57 -39.5 -96.5t-95.5 -39.5 q-17 0 -38 6.5t-44 20.5t-38 42.5t-15 66.5zM248 1262q0 -41 29 -66t61 -25q38 0 64 27t26 64q0 38 -26.5 65t-63.5 27q-38 0 -64 -27.5t-26 -64.5z" />
<glyph unicode="&#xe6;" horiz-adv-x="1024" d="M61 240q0 95 36 161t114 117q35 23 124 69t132 77v161q0 129 -129 129q-74 0 -107.5 -48.5t-33.5 -121.5v-67h-86v74q0 241 231 241q70 0 107 -19t75 -61q63 82 187 82q231 0 231 -262v-246h-389v-231q0 -23 1.5 -43t10 -54.5t23.5 -58.5t46 -42.5t73 -18.5q71 0 110 47 t39 121v106h88v-76q0 -126 -56 -203t-177 -77q-47 0 -82 9.5t-61 30.5t-39.5 37.5t-34.5 47.5q-24 -45 -86.5 -85t-135.5 -40q-36 0 -70 11t-67.5 36t-53.5 75.5t-20 121.5zM147 240q0 -30 6.5 -56t21.5 -51.5t45.5 -40t72.5 -14.5q119 0 174 129v368q-28 -22 -76 -48.5 t-86.5 -48.5t-76.5 -53t-59.5 -77.5t-21.5 -107.5zM553 600h303v186q0 78 -35.5 123t-111.5 45q-77 0 -116.5 -49.5t-39.5 -142.5v-162z" />
<glyph unicode="&#xe7;" d="M82 295v475q0 71 19.5 122.5t45 77t62.5 40.5t60 17.5t50 2.5q236 0 236 -276v-90h-86v79q0 99 -36.5 155t-110.5 56q-40 0 -69 -14.5t-44.5 -34.5t-24.5 -48.5t-11.5 -49t-2.5 -43.5v-457q0 -119 34 -175t128 -56q143 0 143 168v149h90v-133q0 -133 -53.5 -192 t-161.5 -72l-4 -45q61 -17 104.5 -53.5t43.5 -96.5q0 -44 -34 -86.5t-112 -42.5q-34 0 -68.5 10.5t-56.5 21.5t-59 32l39 45q71 -39 110 -39t56.5 22t17.5 43q0 69 -111 87l7 102q-54 8 -92.5 31t-59 51t-32 68.5t-14.5 73t-3 75.5z" />
<glyph unicode="&#xe8;" d="M29 1389h198l179 -224h-68zM88 238v553q0 50 12 91.5t38 77.5t73 56t111 20q237 0 237 -266v-264h-385v-254q0 -21 2 -40.5t11 -45t24 -44t44 -31.5t67 -13q41 0 70.5 13t44.5 31t23.5 48.5t10.5 54.5t2 60v73h86v-129q0 -43 -12.5 -82.5t-39 -73.5t-74 -54.5 t-111.5 -20.5q-104 0 -169 59.5t-65 180.5zM174 580h297v204q0 85 -41 129.5t-106 44.5q-74 0 -112 -49.5t-38 -132.5v-196z" />
<glyph unicode="&#xe9;" d="M88 238v553q0 50 12 91.5t38 77.5t73 56t111 20q237 0 237 -266v-264h-385v-254q0 -21 2 -40.5t11 -45t24 -44t44 -31.5t67 -13q41 0 70.5 13t44.5 31t23.5 48.5t10.5 54.5t2 60v73h86v-129q0 -43 -12.5 -82.5t-39 -73.5t-74 -54.5t-111.5 -20.5q-104 0 -169 59.5 t-65 180.5zM174 580h297v204q0 85 -41 129.5t-106 44.5q-74 0 -112 -49.5t-38 -132.5v-196zM211 1161l172 223h195l-293 -223h-74z" />
<glyph unicode="&#xea;" d="M88 238v553q0 50 12 91.5t38 77.5t73 56t111 20q237 0 237 -266v-264h-385v-254q0 -21 2 -40.5t11 -45t24 -44t44 -31.5t67 -13q41 0 70.5 13t44.5 31t23.5 48.5t10.5 54.5t2 60v73h86v-129q0 -43 -12.5 -82.5t-39 -73.5t-74 -54.5t-111.5 -20.5q-104 0 -169 59.5 t-65 180.5zM109 1163l159 223h103l149 -223h-82l-119 142l-124 -142h-86zM174 580h297v204q0 85 -41 129.5t-106 44.5q-74 0 -112 -49.5t-38 -132.5v-196z" />
<glyph unicode="&#xeb;" d="M88 238v553q0 50 12 91.5t38 77.5t73 56t111 20q237 0 237 -266v-264h-385v-254q0 -21 2 -40.5t11 -45t24 -44t44 -31.5t67 -13q41 0 70.5 13t44.5 31t23.5 48.5t10.5 54.5t2 60v73h86v-129q0 -43 -12.5 -82.5t-39 -73.5t-74 -54.5t-111.5 -20.5q-104 0 -169 59.5 t-65 180.5zM164 1198v158h98v-158h-98zM174 580h297v204q0 85 -41 129.5t-106 44.5q-74 0 -112 -49.5t-38 -132.5v-196zM367 1198v158h98v-158h-98z" />
<glyph unicode="&#xec;" horiz-adv-x="299" d="M-111 1389h199l178 -224h-67zM106 0v1030h89v-1030h-89z" />
<glyph unicode="&#xed;" horiz-adv-x="299" d="M23 1161l172 223h194l-293 -223h-73zM106 0v1030h89v-1030h-89z" />
<glyph unicode="&#xee;" horiz-adv-x="299" d="M-61 1163l159 223h103l149 -223h-82l-118 142l-125 -142h-86zM106 0v1030h89v-1030h-89z" />
<glyph unicode="&#xef;" horiz-adv-x="299" d="M-6 1198v158h98v-158h-98zM106 0v1030h89v-1030h-89zM197 1198v158h98v-158h-98z" />
<glyph unicode="&#xf0;" d="M80 213v575q0 120 70.5 184t166.5 64q52 0 87.5 -17.5t72.5 -66.5q-5 60 -10.5 95.5t-22.5 84t-47 93.5l-211 -78l-28 61l196 76q-14 17 -57.5 61t-83.5 74l72 37q2 -2 20.5 -18t28 -24.5t27 -25.5t34 -35.5t33.5 -39.5l131 49l29 -64l-117 -45q54 -92 72 -184t18 -272 v-545q0 -108 -61.5 -182t-182.5 -74q-107 0 -172 59t-65 158zM168 250q0 -170 147 -170q40 0 70.5 13t46.5 31.5t26 43.5t12.5 43.5t2.5 36.5v530q0 17 -1 32t-9 43t-22 47t-43.5 34.5t-69.5 15.5q-52 0 -86.5 -18.5t-49 -49.5t-19.5 -55.5t-5 -52.5v-524z" />
<glyph unicode="&#xf1;" horiz-adv-x="681" d="M113 0v1030h86v-98q68 110 190 110q34 0 66 -10t62.5 -32.5t48.5 -64.5t18 -99v-836h-86v811q0 156 -127 156q-116 0 -172 -129v-838h-86zM121 1178q0 70 30 116.5t95 46.5q39 0 110.5 -34.5t96.5 -34.5q51 0 51 69h61q0 -81 -20.5 -122t-83.5 -41q-37 0 -117.5 35.5 t-103.5 35.5q-57 0 -60 -71h-59z" />
<glyph unicode="&#xf2;" d="M39 1389h199l178 -224h-68zM80 219v569q0 106 60.5 177t187.5 71q233 0 233 -250v-516q0 -140 -68 -207t-176 -67t-172.5 60t-64.5 163zM168 246q0 -81 39 -123.5t110 -42.5q38 0 67 12t45.5 30t26.5 43t13.5 47t3.5 46v516q0 176 -145 176q-49 0 -82.5 -16t-49.5 -45.5 t-22 -61t-6 -73.5v-508z" />
<glyph unicode="&#xf3;" d="M80 219v569q0 106 60.5 177t187.5 71q233 0 233 -250v-516q0 -140 -68 -207t-176 -67t-172.5 60t-64.5 163zM168 246q0 -81 39 -123.5t110 -42.5q38 0 67 12t45.5 30t26.5 43t13.5 47t3.5 46v516q0 176 -145 176q-49 0 -82.5 -16t-49.5 -45.5t-22 -61t-6 -73.5v-508z M213 1161l172 223h195l-293 -223h-74z" />
<glyph unicode="&#xf4;" d="M80 219v569q0 106 60.5 177t187.5 71q233 0 233 -250v-516q0 -140 -68 -207t-176 -67t-172.5 60t-64.5 163zM109 1163l159 223h103l149 -223h-82l-119 142l-124 -142h-86zM168 246q0 -81 39 -123.5t110 -42.5q38 0 67 12t45.5 30t26.5 43t13.5 47t3.5 46v516 q0 176 -145 176q-49 0 -82.5 -16t-49.5 -45.5t-22 -61t-6 -73.5v-508z" />
<glyph unicode="&#xf5;" d="M80 219v569q0 106 60.5 177t187.5 71q233 0 233 -250v-516q0 -140 -68 -207t-176 -67t-172.5 60t-64.5 163zM100 1178q0 70 30 116.5t95 46.5q39 0 110.5 -34.5t96.5 -34.5q51 0 51 69h62q0 -80 -21 -121.5t-84 -41.5q-37 0 -117.5 35.5t-103.5 35.5q-56 0 -59 -71h-60z M168 246q0 -81 39 -123.5t110 -42.5q38 0 67 12t45.5 30t26.5 43t13.5 47t3.5 46v516q0 176 -145 176q-49 0 -82.5 -16t-49.5 -45.5t-22 -61t-6 -73.5v-508z" />
<glyph unicode="&#xf6;" d="M80 219v569q0 106 60.5 177t187.5 71q233 0 233 -250v-516q0 -140 -68 -207t-176 -67t-172.5 60t-64.5 163zM168 246q0 -81 39 -123.5t110 -42.5q38 0 67 12t45.5 30t26.5 43t13.5 47t3.5 46v516q0 176 -145 176q-49 0 -82.5 -16t-49.5 -45.5t-22 -61t-6 -73.5v-508z M170 1198v158h98v-158h-98zM373 1198v158h98v-158h-98z" />
<glyph unicode="&#xf7;" horiz-adv-x="1144" d="M174 563v86h799v-86h-799zM524 285v151h101v-151h-101zM524 774v152h101v-152h-101z" />
<glyph unicode="&#xf8;" d="M45 12l55 109q-1 5 -4.5 15.5t-4.5 14t-3.5 11.5t-3 11.5t-2.5 11t-2 12t-1 12t-1 15v16.5v520q0 39 5 73t21 72.5t42 66t73 46t109 18.5q74 0 121.5 -25.5t70.5 -60.5l45 84l37 -20l-59 -115q7 -21 9.5 -30.5t4.5 -28t2 -49.5v-545q0 -67 -21 -117.5t-57 -77.5 t-75.5 -40t-83.5 -13q-75 0 -125 22.5t-72 57.5l-45 -86zM166 252l299 586q-7 24 -12.5 37t-20.5 34t-42.5 31t-67.5 10q-86 0 -121 -48.5t-35 -147.5v-502zM176 176q7 -38 42 -68t99 -30q32 0 57 8t41 20t27.5 32.5t17.5 37t9 42.5t3.5 41.5t0.5 39.5v459z" />
<glyph unicode="&#xf9;" horiz-adv-x="681" d="M61 1389h199l178 -224h-67zM102 199v831h86v-762q0 -198 136 -198q57 0 98 34.5t61 98.5v827h88v-1030h-88v96q-30 -45 -80.5 -73.5t-105.5 -28.5q-50 0 -89.5 20t-61.5 52t-33 66t-11 67z" />
<glyph unicode="&#xfa;" horiz-adv-x="681" d="M102 199v831h86v-762q0 -198 136 -198q57 0 98 34.5t61 98.5v827h88v-1030h-88v96q-30 -45 -80.5 -73.5t-105.5 -28.5q-50 0 -89.5 20t-61.5 52t-33 66t-11 67zM236 1161l172 223h194l-293 -223h-73z" />
<glyph unicode="&#xfb;" horiz-adv-x="681" d="M102 199v831h86v-762q0 -198 136 -198q57 0 98 34.5t61 98.5v827h88v-1030h-88v96q-30 -45 -80.5 -73.5t-105.5 -28.5q-50 0 -89.5 20t-61.5 52t-33 66t-11 67zM131 1163l160 223h102l150 -223h-82l-119 142l-125 -142h-86z" />
<glyph unicode="&#xfc;" horiz-adv-x="681" d="M102 199v831h86v-762q0 -198 136 -198q57 0 98 34.5t61 98.5v827h88v-1030h-88v96q-30 -45 -80.5 -73.5t-105.5 -28.5q-50 0 -89.5 20t-61.5 52t-33 66t-11 67zM186 1198v158h99v-158h-99zM389 1198v158h98v-158h-98z" />
<glyph unicode="&#xfd;" horiz-adv-x="598" d="M18 -250q16 -4 43 -4q136 0 168 143l27 119l-225 1022h88l180 -856l182 856h92l-264 -1147q-13 -53 -27.5 -87.5t-43.5 -65.5t-72 -46.5t-71 -17.5t-77 -2v86zM219 1161l172 223h195l-293 -223h-74z" />
<glyph unicode="&#xfe;" horiz-adv-x="681" d="M111 -334v1780h82v-512q25 29 44 47.5t60 38.5t86 20q201 0 201 -278v-533q0 -118 -61.5 -176.5t-147.5 -58.5q-107 0 -176 90v-418h-88zM199 193q13 -37 35.5 -62.5t48 -36t43 -14.5t32.5 -4q45 0 75.5 19t42.5 50t16 54t4 49v553q0 84 -40.5 122t-93.5 38 q-18 0 -37.5 -4.5t-44.5 -17t-47 -41.5t-34 -71v-634z" />
<glyph unicode="&#xff;" horiz-adv-x="598" d="M18 -250q16 -4 43 -4q136 0 168 143l27 119l-225 1022h88l180 -856l182 856h92l-264 -1147q-13 -53 -27.5 -87.5t-43.5 -65.5t-72 -46.5t-71 -17.5t-77 -2v86zM164 1198v158h98v-158h-98zM367 1198v158h98v-158h-98z" />
<glyph unicode="&#x152;" horiz-adv-x="1110" d="M102 250v885q0 68 14 123.5t45.5 103t90 74t139.5 26.5q54 0 98 -15t62.5 -29t44.5 -38v66h473v-88h-377v-565h334v-86h-332v-619h377v-88h-473v82q-20 -33 -79.5 -67.5t-145.5 -34.5q-61 0 -109.5 19t-78 47.5t-49 66t-27 71.5t-7.5 66zM199 281q0 -91 48.5 -153 t141.5 -62q24 0 50 6t55 21.5t51.5 39.5t37.5 64.5t15 91.5v782q0 49 -3.5 87.5t-16.5 81t-35 71t-62 47t-94 18.5q-94 0 -141 -57.5t-47 -153.5v-884z" />
<glyph unicode="&#x153;" horiz-adv-x="1024" d="M86 236v573q0 97 62 160t176 63q56 0 97 -16.5t59 -34t42 -49.5q25 49 82 75.5t119 26.5q223 0 223 -272v-240h-385v-243q0 -104 43.5 -153.5t116.5 -49.5q67 0 102 43.5t35 116.5v110h88v-94q0 -260 -225 -260q-157 0 -207 119q-15 -21 -26 -34t-36.5 -36.5t-61.5 -36 t-79 -12.5q-225 0 -225 244zM172 279q0 -102 35 -152.5t110 -50.5q81 0 118.5 53.5t37.5 138.5v504q0 12 -0.5 22.5t-3.5 30t-8.5 35t-16.5 33.5t-26 30.5t-39.5 20.5t-54.5 8q-44 0 -75.5 -15.5t-47 -42.5t-22.5 -55.5t-7 -60.5v-499zM559 596h299v184q0 78 -33.5 126 t-107.5 48q-38 0 -67.5 -13t-46 -32.5t-27 -45.5t-14 -49.5t-3.5 -47.5v-170z" />
<glyph unicode="&#x178;" horiz-adv-x="724" d="M29 1446h106l232 -680l229 680h111l-295 -807v-639h-99v639zM160 1616v156h106v-156h-106zM463 1616v156h106v-156h-106z" />
<glyph unicode="&#x2c6;" horiz-adv-x="468" d="M29 1163l159 223h103l149 -223h-82l-118 142l-125 -142h-86z" />
<glyph unicode="&#x2dc;" horiz-adv-x="468" d="M12 1178q0 70 30 116.5t95 46.5q39 0 110.5 -34.5t96.5 -34.5q51 0 51 69h62q0 -80 -21 -121.5t-84 -41.5q-37 0 -117.5 35.5t-103.5 35.5q-56 0 -59 -71h-60z" />
<glyph unicode="&#x2000;" horiz-adv-x="901" />
<glyph unicode="&#x2001;" horiz-adv-x="1802" />
<glyph unicode="&#x2002;" horiz-adv-x="901" />
<glyph unicode="&#x2003;" horiz-adv-x="1802" />
<glyph unicode="&#x2004;" horiz-adv-x="600" />
<glyph unicode="&#x2005;" horiz-adv-x="450" />
<glyph unicode="&#x2006;" horiz-adv-x="300" />
<glyph unicode="&#x2007;" horiz-adv-x="300" />
<glyph unicode="&#x2008;" horiz-adv-x="225" />
<glyph unicode="&#x2009;" horiz-adv-x="360" />
<glyph unicode="&#x200a;" horiz-adv-x="100" />
<glyph unicode="&#x2010;" horiz-adv-x="507" d="M72 555v86h362v-86h-362z" />
<glyph unicode="&#x2011;" horiz-adv-x="507" d="M72 555v86h362v-86h-362z" />
<glyph unicode="&#x2012;" horiz-adv-x="507" d="M72 555v86h362v-86h-362z" />
<glyph unicode="&#x2013;" horiz-adv-x="727" d="M72 555v86h581v-86h-581z" />
<glyph unicode="&#x2014;" horiz-adv-x="1144" d="M141 555v86h863v-86h-863z" />
<glyph unicode="&#x2018;" horiz-adv-x="299" d="M111 1075v187q0 72 18 113.5t74 70.5v-45q-32 -24 -40.5 -52t-8.5 -75v-12h49v-187h-92z" />
<glyph unicode="&#x2019;" horiz-adv-x="299" d="M102 1075v45q34 24 43 55t9 85h-50v186h93v-186q0 -72 -19 -114t-76 -71z" />
<glyph unicode="&#x201a;" horiz-adv-x="299" d="M102 -139q24 16 36 40.5t14 43.5t2 55h-50v186h93v-186q0 -73 -18.5 -114t-76.5 -70v45z" />
<glyph unicode="&#x201c;" horiz-adv-x="512" d="M88 1075v187q0 73 17.5 115.5t74.5 70.5v-45q-32 -24 -40.5 -53t-8.5 -76v-12h49v-187h-92zM311 1075v187q0 72 18 114.5t74 71.5v-45q-32 -25 -40.5 -53t-8.5 -76v-12h49v-187h-92z" />
<glyph unicode="&#x201d;" horiz-adv-x="512" d="M96 1075v45q24 16 36 41t13.5 43.5t1.5 55.5h-49v186h92v-186q0 -72 -18.5 -114t-75.5 -71zM319 1075v45q34 24 43 55t9 85h-52v186h93v-186q0 -73 -18 -114.5t-75 -70.5z" />
<glyph unicode="&#x201e;" horiz-adv-x="512" d="M98 0v186h92v-184q0 -74 -18 -117t-74 -69v45q31 17 40 50.5t9 88.5h-49zM319 -139q24 14 36 38t14 44t2 57h-49v186h92v-186q0 -72 -19 -115t-76 -69v45z" />
<glyph unicode="&#x2022;" horiz-adv-x="681" d="M195 524v408h292v-408h-292z" />
<glyph unicode="&#x2026;" horiz-adv-x="2048" d="M289 0v133h106v-133h-106zM971 0v133h106v-133h-106zM1653 0v133h104v-133h-104z" />
<glyph unicode="&#x202f;" horiz-adv-x="360" />
<glyph unicode="&#x2039;" horiz-adv-x="512" d="M72 600l254 205h123l-250 -205l239 -205h-114z" />
<glyph unicode="&#x203a;" horiz-adv-x="512" d="M55 391l264 207l-249 203h123l247 -201l-258 -209h-127z" />
<glyph unicode="&#x205f;" horiz-adv-x="450" />
<glyph unicode="&#x20ac;" horiz-adv-x="790" d="M53 635l17 78h106v104h-123l17 78h106v233q0 334 293 334q93 0 153.5 -27.5t110.5 -91.5l-33 -102q-50 71 -102 101t-127 30q-107 0 -154 -60t-47 -216v-201h367l-25 -78h-342v-104h324l-23 -78h-299v-213q0 -61 2 -99.5t8.5 -83.5t20 -72t36 -51.5t57.5 -35t83 -10.5 q74 0 134 30t118 97v-129q-64 -49 -123.5 -70t-136.5 -21q-295 0 -295 328v330h-123z" />
<glyph unicode="&#x2122;" horiz-adv-x="1052" d="M45 1372v74h332v-74h-123v-606h-82v606h-127zM438 1446h117l123 -606l123 606h119q0 -168 1 -414.5t1 -265.5h-80l8 614l-127 -614h-90l-127 614q12 -546 14 -614h-80z" />
<glyph unicode="&#x25fc;" horiz-adv-x="1034" d="M0 0v1034h1034v-1034h-1034z" />
</font>
</defs>
</svg>
